вход на сайт

Имя пользователя :
Пароль :

Восстановление пароля Регистрация
Оливер Твист / Oliver Twist (Роман Полански, Драма, 2005) [BDRip 720р, Профессиональный (полное дублирование) + Оригинал]
Рейтинг:
(голосов: 1)



[img]{THEME}/images/logopost.png[/img]



Оливер Твист / Oliver Twist

Год выпуска: 2005
Страна: Франция - Великобритания - Италия - Чехия
Производство: R.P. Productions
Жанр: Драма, семейный Режиссёр: Роман Полански
В ролях: Барни Кларк, Бен Кингсли, Джэми Формен, Лиэнн Роу, Марк Стронг, Гарри Иден, Эдвард Хардуик, Иэн МакНис, Джереми Свифт, Фрэнсис Кука

Перевод: Профессиональный (полное дублирование) + Оригинал
Субтитры: Английский, РусскийОписание:
19-й век. Мальчик по имени Оливер Твист, брошенный родителями, оказывается на улицах Лондона. Здесь он знакомится с вором по имени Фэджин, который приглашает Оливера в свою команду.
Некоторое время спустя Оливер, начинающий вор, попадается на горячем. Однако, поймавший его мистер Браунлоу вместо того, чтобы наказать маленького мерзавца, решает его воспитать…


Дата мировой премьеры: 11 сентября 2005
Дата российской премьеры: 27 октября 2005, «West»
Дата выхода DVD релиза: 18 ноября 2008, «Мьюзик-Трейд»
Качество: BDRip 720p
Продолжительность: 02:09:59 час.

Формат: MKV
Видео кодек: AVC
Аудио кодек: DTS
Видео: 1280x544 (2.35:1), 23.976 fps, 4 053 Kbps, 0.243 bit/pixel
Аудио #1: DTS, 48.0 KHz, 6 ch, 755 Kbps, CBR (Русский)
Аудио #2: DTS, 48.0 KHz, 6 ch, 1 510 Kbps, CBR (Английский)
"MediaInfo" ▼TextВидео
Идентификатор : 1
Формат : AVC
Формат/Информация : Advanced Video Codec
Профиль формата : [email protected]
Параметр CABAC формата : Да
Параметр ReFrames формата : 11 кадров
Идентификатор кодека : V_MPEG4/ISO/AVC
Продолжительность : 2 ч. 9 м.
Битрейт : 4053 Кбит/сек
Ширина : 1280 пикселей
Высота : 544 пикселя
Соотношение сторон : 2,35:1
Режим частоты кадров : Постоянный
Частота кадров : 23,976 кадра/сек
Цветовое пространство : YUV
Субдискретизация насыщенности : 4:2:0
Битовая глубина : 8 бит
Тип развёртки : Прогрессивная
Бит/(Пиксели*Кадры) : 0.243
Размер потока : 3,57 Гбайт (62%)
Заголовок : Release for HDCLUB
Библиотека кодирования : x264 core 105 r1724 b02df7b
Настройки программы : cabac=1 / ref=11 / deblock=1:-3:-3 / analyse=0x3:0x133 / me=umh / subme=10 / psy=1 / psy_rd=1.00:0.00 / mixed_ref=1 / me_range=32 / chroma_me=1 / trellis=2 / 8x8dct=1 / cqm=0 / deadzone=21,11 / fast_pskip=0 / chroma_qp_offset=-2 / threads=12 / sliced_threads=0 / nr=0 / decimate=0 / interlaced=0 / constrained_intra=0 / bframes=10 / b_pyramid=2 / b_adapt=2 / b_bias=0 / direct=3 / weightb=1 / open_gop=0 / weightp=2 / keyint=250 / keyint_min=23 / scenecut=40 / intra_refresh=0 / rc_lookahead=60 / rc=2pass / mbtree=0 / bitrate=4053 / ratetol=1.0 / qcomp=0.60 / qpmin=10 / qpmax=51 / qpstep=4 / cplxblur=20.0 / qblur=0.5 / vbv_maxrate=50000 / vbv_bufsize=62500 / ip_ratio=1.40 / pb_ratio=1.30 / aq=1:0.80 / nal_hrd=none
Язык : English
Default : Нет
Forced : Нет

Аудио #1
Идентификатор : 2
Формат : DTS
Формат/Информация : Digital Theater Systems
Режим : 16
Параметр Endianness формата : Big
Идентификатор кодека : A_DTS
Продолжительность : 2 ч. 9 м.
Вид битрейта : Постоянный
Битрейт : 755 Кбит/сек
Каналы : 6 каналов
Расположение каналов : Front: L C R, Side: L R, LFE
Частота : 48,0 КГц
Битовая глубина : 24 бит
Метод сжатия : С потерями
Размер потока : 702 Мбайт (12%)
Заголовок : DTS 5.1 @ 768 kbps - Дублированный
Язык : Russian
Default : Да
Forced : Нет

Аудио #2
Идентификатор : 3
Формат : DTS
Формат/Информация : Digital Theater Systems
Режим : 16
Параметр Endianness формата : Big
Идентификатор кодека : A_DTS
Продолжительность : 2 ч. 9 м.
Вид битрейта : Постоянный
Битрейт : 1509 Кбит/сек
Каналы : 6 каналов
Расположение каналов : Front: L C R, Side: L R, LFE
Частота : 48,0 КГц
Битовая глубина : 16 бит
Метод сжатия : С потерями
Размер потока : 1,37 Гбайт (24%)
Заголовок : DTS 5.1 @ 1536 kbps
Язык : English
Default : Нет
Forced : Нет

Текст #1
Идентификатор : 4
Формат : UTF-8
Идентификатор кодека : S_TEXT/UTF8
Идентификатор кодека/Информация : UTF-8 Plain Text
Язык : Russian
Default : Нет
Forced :
571e7edbd50de2ec1cb39151956784973a27a25dОливер Твист / Oliver Twist (Роман Полански, Драма, 2005) [BDRip 720р, Профессиональный (полное дублирование) + Оригинал] Оливер Твист / Oliver Twist (Роман Полански, Драма, 2005) [BDRip 720р, Профессиональный (полное дублирование) + Оригинал] " />

Аплоадер: Админ, дата: 3-05-2013, 13:11, торрент скачан: 359 раз

Понравилась раздача? Посмотрите эти:
  • Византия / Byzantium (Нил Джордан, Фэнтези, триллер, драма, 2012) [BDRip 10 ...
  • Заклятие / The Conjuring (Джеймс Ван, ужасы, триллер, 2013) [BDRip 720р, Ду ...
  • Лавлэйс / Lovelace (Роб Эпштейн, Джеффри Фридман, драма, биография, 2013) [ ...
  • Стукач / Snitch (Рик Роман Во, Триллер, драма, 2013) [BDRip-AVC, Дубляж, Ор ...
  • Стукач / Snitch (Рик Роман Во, Триллер, драма, криминал, 2013) [BDRip 720p, ...
  • Летучий отряд Скотланд-Ярда / The Sweeney (Ник Лав, Боевик, драма, криминал ...
  • Оливер и компания / Oliver & Company (Джордж Скрибнер, Мультфильм, мюзикл, ...
  • Больше, чем любовь / A Lot Like Love (Найджел Коул, Драма, мелодрама, комед ...
  • Начало времен / Year One (Харольд Рэмис, Фантастика, комедия, приключения, ...
  • Суррогат / The Sessions (Бен Луин, Драма, 2012) [BDRip-AVC, Профессиональны ...
  • Драйв / Drive (Николас Виндинг Рёфн, боевик, триллер, драма, криминал, 2011 ...
  • Резня /Carnage (Роман Полански, драма, комедия, 2011) [DVDRip-AVC, Дублиров ...
  • Оливер Твист / Oliver Twist (Роман Полански, Драма, семейный, 2005) [BDRip ...
  • Оливер Твист / Oliver Twist (Роман Полански, Драма, семейный, приключения, ...
  • Эд Вуд / Ed Wood (Тим Бёртон, драма, комедия, биография, 1994) [BDRip-AVC, ...
  • Четыре Рождества / Four Christmases (Сет Гордон, Драма, мелодрама, комедия, ...
  • Переростки / The Inbetweeners (Бен Палмер / Ben Palmer, комедия, 2011) [BDR ...
  • Резня /Carnage (Роман Полански, драма, комедия, 2011) [BDRip 1080p, Дублиро ...
  • Черное золото / Black Gold (Жан-Жак Анно, драма, 2011) [BDRip 1080p, Профес ...
  • Павшая империя / Hirokin (Алехо Мо-Сан, фантастика, боевик, драма, приключе ...
  • [EN] Оливер Твист / Oliver Twist (Роман Полански, Драма, Приключения, 2005) ...
  • Оливер Твист / Oliver Twist (Роман Полански , Драма , 2005) [HDRip-AVC, Про ...
  • Оливер Твист / Oliver Twist (Роман Полански, драма, семейный, 2005) [HDRip, ...
  • Оливер Твист / Oliver Twist (Роман Полански, драма, семейный, 2005) [BDRip, ...
  • Оливер Твист / Oliver Twist (Дэвид Лин, драма, 1948) [DVDRip, Профессиональ ...
  • Информация
    Посетители, находящиеся в группе Гости, не могут оставлять комментарии к данной публикации.