вход на сайт

Имя пользователя :
Пароль :

Восстановление пароля Регистрация
Эскадрилья "Лафайет" / Flyboys (Тони Билл, Боевик, драма, мелодрама, приключения, военный, история; 2006) [Blu-Ray Remux, Дубляж; Профессиональный (полное дублирование); Английский]
Рейтинг:
(голосов: 1)



[img]{THEME}/images/logopost.png[/img]



Эскадрилья "Лафайет" / Flyboys


Год выпуска: 2006
Страна: Франция - США
Производство: Electric Entertainment, Flyboys Films, Ingenious Film Partners
Жанр: Боевик, драма, мелодрама, приключения, военный, история

Режиссёр: Тони Билл / Tony Bill
В ролях: Джеймс Франко, Мартин Хендерсон, Дэвид Эллисон, Дженнифер Декер, Тайлер Лэбин, Абдул Сэлис, Рут Брэдли, Карен Форд, Тим Пиготт-Смит, Тодд Бойс, Жан Рено, Гэйл Дауни, Мак МакДональд

Перевод: Дубляж; Профессиональный (полное дублирование) + Английский (Оригинал)
Субтитры: Отсутствуют

Описание
История легендарной американской эскадрильи «Лафайет» времен Первой мировой войны. Летный состав этой эскадрильи составляли добровольцы-иностранцы из стран, которые не находились в состоянии войны с Германией.
В центре фильма - история американских юнцов, выпускников летных курсов, попадающие на войну, которая сильно отличалась от «французского курорта», куда они ехали. Это фильм о любви, мужской дружбе, мужестве, отваге и о фантастических самолетах, покоривших небо…

Доп. информация

"Премьера" ▼премьера (мир) 18 мая 2006
премьера (РФ) 26 октября 2006
"MediaInfo" ▼TextОбщее
Полное имя : C:UsersиииDesktop MediaHD фильмыЭскадрилья «Лафайет».mkv
Формат : Matroska
Версия формата : Version 1
Размер файла : 23,2 Гбайт
Продолжительность : 2 ч. 18 м.
Режим общего битрейта : Переменный
Общий поток : 23,9 Мбит/сек
Дата кодирования : UTC 2007-08-21 15:46:01
Программа кодирования : mkvmerge v2.0.2 (Youre My Flame) built on Jun 25 2007 12:41:14
Библиотека кодирования : libebml v0.7.7 + libmatroska v0.8.1

Видео
Идентификатор : 1
Формат : MPEG Video
Версия формата : Version 2
Профиль формата : [email protected]
Параметр BVOP формата : Да
Параметр матрицы формата : По умолчанию
Параметр GOP формата : M=3, N=12
Идентификатор кодека : V_MPEG2
Идентификатор кодека/Информация : MPEG 1 or 2 Video
Продолжительность : 2 ч. 18 м.
Вид битрейта : Переменный
Битрейт : 20,7 Мбит/сек
Максимальный битрейт : 38,0 Мбит/сек
Ширина : 1920 пикселей
Высота : 1080 пикселей
Соотношение сторон : 16:9
Режим частоты кадров : Постоянный
Частота кадров : 23,976 кадра/сек
Цветовое пространство : YUV
Субдискретизация насыщенности : 4:2:0
Битовая глубина : 8 бит
Тип развёртки : Прогрессивная
Метод сжатия : С потерями
Бит/(Пиксели*Кадры) : 0.417
Размер потока : 20,1 Гбайт (87%)
Заголовок : 1920x1080p, MPEG2 (HDTracker.ru)
Язык : English
Default : Да
Forced : Нет

Аудио #1
Идентификатор : 2
Формат : AC-3
Формат/Информация : Audio Coding 3
Расширение режима : CM (complete main)
Параметр Endianness формата : Big
Идентификатор кодека : A_AC3
Продолжительность : 2 ч. 18 м.
Вид битрейта : Постоянный
Битрейт : 448 Кбит/сек
Каналы : 6 каналов
Расположение каналов : Front: L C R, Side: L R, LFE
Частота : 48,0 КГц
Битовая глубина : 16 бит
Метод сжатия : С потерями
Размер потока : 444 Мбайт (2%)
Заголовок : AC3, 6ch 448kbps
Язык : Russian
Default : Да
Forced : Нет

Аудио #2
Идентификатор : 3
Формат : DTS
Формат/Информация : Digital Theater Systems
Режим : 16
Параметр Endianness формата : Big
Идентификатор кодека : A_DTS
Продолжительность : 2 ч. 18 м.
Вид битрейта : Постоянный
Битрейт : 755 Кбит/сек
Каналы : 6 каналов
Расположение каналов : Front: L C R, Side: L R, LFE
Частота : 48,0 КГц
Битовая глубина : 24 бит
Метод сжатия : С потерями
Размер потока : 749 Мбайт (3%)
Заголовок : DTS 5.1, 768kbps
Язык : Russian
Default : Нет
Forced : Нет

Аудио #3
Идентификатор : 4
Формат : DTS
Формат/Информация : Digital Theater Systems
Режим : 16
Параметр Endianness формата : Big
Идентификатор кодека : A_DTS
Продолжительность : 2 ч. 18 м.
Вид битрейта : Постоянный
Битрейт : 1509 Кбит/сек
Каналы : 6 каналов
Расположение каналов : Front: L C R, Side: L R, LFE
Частота : 48,0 КГц
Битовая глубина : 24 бит
Метод сжатия : С потерями
Размер потока : 1,46 Гбайт (6%)
Заголовок : DTS 5.1, 1536kbps
Язык : English
Default : Нет
4f6ac045b190a4881b7a665042ceafc30cd0f88bЭскадрилья "Лафайет" / Flyboys (Тони Билл, Боевик, драма, мелодрама, приключения, военный, история; 2006) [Blu-Ray Remux, Дубляж; Профессиональный (полное дублирование); Английский] Эскадрилья "Лафайет" / Flyboys (Тони Билл, Боевик, драма, мелодрама, приключения, военный, история; 2006) [Blu-Ray Remux, Дубляж; Профессиональный (полное дублирование); Английский] " />

Аплоадер: Админ, дата: 23-04-2013, 19:00, торрент скачан: 359 раз

Понравилась раздача? Посмотрите эти:
  • Va-банк / Runner Runner (Брэд Фурман, триллер, драма, криминал, 2013) [BDRe ...
  • Мы - Миллеры [Расширенная версия] / Were the Millers [Extended Cut] (Роусон ...
  • Заклятие / The Conjuring (Джеймс Ван, ужасы, триллер, 2013) [BDRip 1080p, Д ...
  • Копы в юбках / The Heat [UNRATED] (Пол Фиг, комедия, криминал, боевик, дете ...
  • Поймай толстуху, если сможешь [Театральная версия] / Identity Thief [Theatr ...
  • G.I. Joe: Бросок кобры 2 [Театральная версия] / G.I. Joe: Retaliation [Thea ...
  • Падение Олимпа / Olympus Has Fallen (Антуан Фукуа, Боевик, триллер, 2013) [ ...
  • Эскадрилья «Лафайет» / Flyboys (Тони Билл, боевик, драма, мелодрама, приклю ...
  • Запрещенный прием / Sucker Punch (Зак Снайдер, Фэнтези, 2011) [BDRemux 108 ...
  • Другой мир: Пробуждение / Underworld: Awakening (Манс Марлинд, Бьёрн Стейн, ...
  • Аноним / Anonymous (Роланд Эммерих / Roland Emmerich, триллер, драма, 2011) ...
  • Диктатор / The Dictator (Ларри Чарльз, Комедия, 2012) [BD-Remux 1080p, Дубл ...
  • Счастливчик / The Lucky One (Скотт Хикс, Драма, мелодрама, 2012) [BD-Remux ...
  • Сид, инструкция по выживанию / Surviving Sid (Гален Т. Чу, Карен Дишер, мул ...
  • Средь бела дня / The Cold Light of Day (Мабрук Эль Мекри, Боевик, триллер, ...
  • Красные огни / Red Lights (Родриго Кортес, Ужасы, триллер, драма, 2012) [BD ...
  • Белоснежка и охотник [Расширенная версия] / Snow White and the Huntsman [U ...
  • Ищу друга на конец света / Seeking a Friend for the End of the World (Лорен ...
  • Супер Майк / Magic Mike (Стивен Содерберг, Драма, комедия, 2012) [BD-Remux ...
  • Папа-Досвидос [Театральная версия] / Thats My Boy [Theatrical Cut] (Шон Анд ...
  • Эволюция Борна / The Bourne Legacy (Тони Гилрой, боевик, триллер, детектив, ...
  • Эскадрилья «Лафайет» / Flyboys (Тони Билл / Tony Bill, боевик, мелодрама, д ...
  • Эскадрилья «Лафайет» / Flyboys (Тони Билл, Боевик, драма, приключения, воен ...
  • Эскадрилья «Лафайет» / Flyboys (Тони Билл, Приключения, Боевик, Военный, 20 ...
  • Сдохни, Джон Такер / John Tucker Must Die (Бетти Томас, мелодрама, комедия, ...
  • Информация
    Посетители, находящиеся в группе Гости, не могут оставлять комментарии к данной публикации.