вход на сайт

Имя пользователя :
Пароль :

Восстановление пароля Регистрация
Ослепленный желаниями / Bedazzled (Харольд Рэмис, фэнтези, комедия, 2000) [BDRip 720p, Дубляж, Профессиональный (многоголосый закадровый), Оригинал (Aнглийский), Sub]
Рейтинг:
(голосов: 1)



[img]{THEME}/images/logopost.png[/img]



Ослепленный желаниями / Bedazzled
«The she devil is giving Elliot seven wishes but not a chance in hell.»

Год выпуска: 2000
Страна: США, Германия
Производство: 20th Century Fox Film Corporation
Жанр: фэнтези, комедия

Режиссёр: Харольд Рэмис
В ролях: Брендан Фрейзер, Элизабет Херли, Фрэнсис О’Коннор, Мириам Шор, Орландо Джонс, Пол Адельштейн, Тоби Хасс, Гэбриел Коссес, Брайан Дойл-Мюррей, Джефф Дусетте

Перевод: Дубляж, Профессиональный (многоголосый закадровый), Оригинал (Aнглийский)
Субтитры: Русские ( Полные,Форсирующие)

Описание: Дьявол еще никогда не был таким соблазнительным. В этот раз он принимает обличие распутной красотки, заставляющий любого мужчину броситься в объятия безумства. Неудачник-программист — лучший объект для вербовки. Объект продажи — бессмертная душа. Цена — 7 желаний. Но в этой жизни бесплатным бывает лишь сыр в мышеловке, каждая медаль имеет две стороны. Выполняя любое желание продажной души, дьявол не дает насладиться результатом. В мгновение ока жизнь программиста превращается в настоящий ад.Дата премьеры (мир): 19 октября 2000
Премьера (РФ): 20 декабря 2000


Качество: BDRip 720p
Продолжительность: 01:33:08


Формат: MKV
Видео кодек: H.264
Аудио кодек: AC3
Видео: H.264, 1280x544 (2.35:1), 23,976 fps, 5 241 kbps, 0.314 bit/pixel
Аудио#1: 48 kHz, AC3 Dolby Digital, 3/2 (L,C,R,l,r) + LFE ch, ~384.00 kbps avg | DUB
Аудио#2: 48 kHz, AC3 Dolby Digital, 3/2 (L,C,R,l,r) + LFE ch, ~448.00 kbps avg | MVO
Аудио#3: 48 kHz, AC3 Dolby Digital, 3/2 (L,C,R,l,r) + LFE ch, ~640.00 kbps avg | ENG


MediaInfo ▼General
Format : Matroska
Format version : Version 4 / Version 2
File size : 4.37 GiB
Duration : 1h 33mn
Overall bit rate : 6 715 Kbps
Encoded date : UTC 2013-05-27 15:43:14
Writing application : mkvmerge v6.0.0 (Coming Up For Air) built on Jan 20 2013 09:52:00
Writing library : libebml v1.3.0 + libmatroska v1.4.0

Video
ID : 1
Format : AVC
Format/Info : Advanced Video Codec
Format profile : [email protected]
Format settings, CABAC : Yes
Format settings, ReFrames : 12 frames
Codec ID : V_MPEG4/ISO/AVC
Duration : 1h 33mn
Bit rate : 5 241 Kbps
Width : 1 280 pixels
Height : 544 pixels
Display aspect ratio : 2.35:1
Frame rate mode : Constant
Frame rate : 23.976 fps
Color space : YUV
Chroma subsampling : 4:2:0
Bit depth : 8 bits
Scan type : Progressive
Bits/(Pixel*Frame) : 0.314
Stream size : 3.32 GiB (76%)
Writing library : x264 core 133 r2334 a3ac64b
Encoding settings : cabac=1 / ref=12 / deblock=1:0:0 / analyse=0x3:0x133 / me=umh / subme=11 / psy=1 / psy_rd=1.00:0.00 / mixed_ref=1 / me_range=64 / chroma_me=1 / trellis=2 / 8x8dct=1 / cqm=0 / deadzone=21,11 / fast_pskip=0 / chroma_qp_offset=-2 / threads=9 / lookahead_threads=2 / sliced_threads=0 / nr=0 / decimate=1 / interlaced=0 / bluray_compat=0 / constrained_intra=0 / bframes=14 / b_pyramid=2 / b_adapt=2 / b_bias=0 / direct=3 / weightb=1 / open_gop=0 / weightp=2 / keyint=240 / keyint_min=23 / scenecut=40 / intra_refresh=0 / rc_lookahead=60 / rc=2pass / mbtree=1 / bitrate=5241 / ratetol=1.0 / qcomp=0.60 / qpmin=0 / qpmax=69 / qpstep=4 / cplxblur=20.0 / qblur=0.5 / ip_ratio=1.40 / aq=1:1.00
Language : English
Default : Yes
Forced : No

Audio #1
ID : 2
Format : AC-3
Format/Info : Audio Coding 3
Mode extension : CM (complete main)
Format settings, Endianness : Big
Codec ID : A_AC3
Duration : 1h 33mn
Bit rate mode : Constant
Bit rate : 384 Kbps
Channel(s) : 6 channels
Channel positions : Front: L C R, Side: L R, LFE
Sampling rate : 48.0 KHz
Bit depth : 16 bits
Compression mode : Lossy
Stream size : 256 MiB (6%)
Title : Дублированный
Language : Russian
Default : Yes
Forced : No

Audio #2
ID : 3
Format : AC-3
Format/Info : Audio Coding 3
Mode extension : CM (complete main)
Format settings, Endianness : Big
Codec ID : A_AC3
Duration : 1h 33mn
Bit rate mode : Constant
Bit rate
1c2ef232ce84e670f4fc322f81558389c83adbefОслепленный желаниями / Bedazzled (Харольд Рэмис, фэнтези, комедия, 2000) [BDRip 720p, Дубляж, Профессиональный (многоголосый закадровый), Оригинал (Aнглийский), Sub] Ослепленный желаниями / Bedazzled (Харольд Рэмис, фэнтези, комедия, 2000) [BDRip 720p, Дубляж, Профессиональный (многоголосый закадровый), Оригинал (Aнглийский), Sub] " />

Аплоадер: Админ, дата: 30-05-2013, 00:27, торрент скачан: 359 раз

Понравилась раздача? Посмотрите эти:
  • Погнали! / Getaway (Кортни Соломон, боевик, криминал, 2013) [BDRip 720p, Пр ...
  • Верное дельце / Une pure affaire (Александр Коффре, Боевик, Комедия, Кримин ...
  • Посылка / The Package (Джесси Джонсон, боевик, 2013) [BDRip 720p, Профессио ...
  • Турбо / Turbo (Дэвид Сорен, Мультфильм, комедия, приключения, семейный, спо ...
  • Воображариум / Imaginaerum (Стобе Харью, Фэнтези, приключения, мюзикл, драм ...
  • Ослепленный желаниями / Bedazzled (Харольд Рэмис, фэнтези, комедия, мелодра ...
  • Ослепленный желаниями / Bedazzled (Харольд Рэмис, фэнтези, комедия, мелодра ...
  • Ослепленный желаниями / Bedazzled (Харольд Рэмис, фэнтези, комедия, мелодра ...
  • UFC The Ultimate 100 Knockouts - PPV [MMA,2013, HDTVRip 720p]
  • Смерть на похоронах / Death at a Funeral (Нил ЛаБут, комедия, 2010) [BDRip ...
  • Цель Номер Один / Zero Dark Thirty (Кэтрин Бигелоу, Триллер, драма, история ...
  • Безопасность не гарантируется / Safety Not Guaranteed (Колин Треворроу, фан ...
  • Джекпот / Arme Riddere (Магнус Мартенс, Боевик, комедия, криминал, 2011) [B ...
  • Черный дрозд / Deadfall (Штефан Руцовицки, Триллер, драма, криминал, 2012) ...
  • Ослепленный желаниями / Bedazzled (2000) (Харольд Рэмис, фэнтези, мелодрама ...
  • «Старый» Новый год / New Years Eve (Гэрри Маршалл, мелодрама, комедия, 2011 ...
  • «Весёлые» каникулы / Get the Gringo (Адриан Грюнберг, Боевик, комедия, 2012 ...
  • Любовь живет три года / Lamour dure trois ans (Фредерик Бегбедер / Frederic ...
  • Ворон / The Raven (Джеймс МакТиг, Триллер, детектив, 2012) [BDRip 720p, Дуб ...
  • Пираньи 3DD / Piranha 3DD (Джон Гулажер, ужасы, триллер, комедия, 2012) [BD ...
  • На Дороге / On The Road (Уолтер Саллес, Драма, приключения, 2012) [BDRip 72 ...
  • Ослепленный желаниями / Bedazzled (Брендан Фрейзер, комедия, 2000) [DVDRi ...
  • Ослепленный желаниями / Bedazzled (Харольд Рэмис, фэнтези, комедия, мелодра ...
  • Ослепленный желаниями / Bedazzled (Харольд Рэмис, фэнтези, комедия, мелодра ...
  • Ослепленный желанием / Bedazzled (Харолд Рэмис, Фэнтези, мелодрама, комедия ...
  • Информация
    Посетители, находящиеся в группе Гости, не могут оставлять комментарии к данной публикации.