вход на сайт

Имя пользователя :
Пароль :

Восстановление пароля Регистрация
Шестое чувство / The Sixth Sense (М. Найт Шьямалан, триллер, драма, детектив, 1999) [BDRip 1080p, Дублированный R5 + Профессиональный (многоголосый, закадровый) R5 + Оригинал (английский) + Subs]
Рейтинг:
(голосов: 1)



[img]{THEME}/images/logopost.png[/img]



Шестое чувство / The Sixth Sense
«Иногда дар – это проклятие»

Год выпуска: 1999
Страна: США
Производство: HollyWood Pictures
Жанр: триллер, драма, детектив

Режиссёр: М. Найт Шьямалан
В ролях: Брюс Уиллис, Хэйли Джоэл Осмент, Тони Коллетт, Оливия Уильямс, Донни Уолберг, Питер Энтони Тамбакис, Джеффри Зубернис, Брюс Норрис, Гленн Фицджералд, Грег Вуд

Перевод: Дублированный R5 + Профессиональный (многоголосый, закадровый) R5 + Оригинал (английский)
Субтитры: Eng, Rus

Описание: Детский психиатр Малкольм Кроу сталкивается со странным случаем: девятилетнего Коула посещают страшные видения — призраки умерших. Все эти люди когда-то были убиты, и теперь они обрушивают на малыша свой гнетущий страх и отчаянный гнев.
Как врач, Малкольм бессилен помочь. Но как человек, он пытается найти ключ к ужасному миру Коула, в котором веет дыхание смерти и распускаются страшные цветы боли.Качество: BDRip 1080p
Продолжительность: 01:47:31 час.

Формат: MKV
Видео кодек: x264
Аудио кодек: AC3
Видео: 1920x1080 (16:9), 23,976 fps, x264 ~9121 Kbps, 0.183 b/pix
Аудио:
Аудио #1: AC3, 6 ch, 384 kbps (Rus) (Dub)
Аудио #2: AC3, 6 ch, 384 kbps (Rus) (MVO)
Аудио #3: AC3, 6 ch, 448 kbps (Eng)


"MediaInfo" ▼
Общее
Уникальный идентификатор : 223106593089007356563302717935024202748 (0xA7D8C44FC27032338BC978FCAEADE3FC)
Полное имя : Шестое чувство.1999.BDRip.1080p.Rus.Eng.mkv
Формат : Matroska
Версия формата : Version 2
Размер файла : 7,76 Гбайт
Продолжительность : 1 ч. 47 м.
Общий поток : 10,3 Мбит/сек
Название фильма : Шестое чувство.1999
Дата кодирования : UTC 2013-08-12 14:48:24
Программа кодирования : mkvmerge v5.8.0 (No Sleep / Pillow) built on Sep 2 2012 15:37:04
Библиотека кодирования : libebml v1.2.3 + libmatroska v1.3.0

Видео
Идентификатор : 1
Формат : AVC
Формат/Информация : Advanced Video Codec
Профиль формата : [email protected]
Параметр CABAC формата : Да
Параметр ReFrames формата : 4 кадра
Идентификатор кодека : V_MPEG4/ISO/AVC
Продолжительность : 1 ч. 47 м.
Битрейт : 9121 Кбит/сек
Ширина : 1920 пикселей
Высота : 1080 пикселей
Соотношение сторон : 16:9
Режим частоты кадров : Постоянный
Частота кадров : 23,976 кадра/сек
Цветовое пространство : YUV
Субдискретизация насыщенности : 4:2:0
Битовая глубина : 8 бит
Тип развёртки : Прогрессивная
Бит/(Пиксели*Кадры) : 0.183
Размер потока : 6,69 Гбайт (86%)
Заголовок : Rip by Boriy
Библиотека кодирования : x264 core 135 r2345 f0c1c53
Настройки программы : cabac=1 / ref=4 / deblock=1:-3:-3 / analyse=0x3:0x113 / me=umh / subme=11 / psy=1 / psy_rd=1.00:0.00 / mixed_ref=1 / me_range=32 / chroma_me=1 / trellis=2 / 8x8dct=1 / cqm=0 / deadzone=21,11 / fast_pskip=0 / chroma_qp_offset=-2 / threads=12 / lookahead_threads=1 / sliced_threads=0 / nr=0 / decimate=0 / interlaced=0 / bluray_compat=0 / constrained_intra=0 / bframes=6 / b_pyramid=2 / b_adapt=2 / b_bias=0 / direct=3 / weightb=1 / open_gop=0 / weightp=2 / keyint=240 / keyint_min=23 / scenecut=40 / intra_refresh=0 / rc=2pass / mbtree=0 / bitrate=9121 / ratetol=1.0 / qcomp=0.60 / qpmin=0 / qpmax=69 / qpstep=4 / cplxblur=20.0 / qblur=0.5 / ip_ratio=1.40 / pb_ratio=1.30 / aq=1:0.90
Язык : English
Default : Да
Forced : Нет

Аудио #1
Идентификатор : 2
Формат : AC-3
Формат/Информация : Audio Coding 3
Расширение режима : CM (complete main)
Параметр Endianness формата : Big
Идентификатор кодека : A_AC3
Продолжительность : 1 ч. 47 м.
Вид битрейта : Постоянный
Битрейт : 384 Кбит/сек
Каналы : 6 каналов
Расположение каналов : Front: L C R, Side: L R, LFE
Частота : 48,0 КГц
Битовая глубина : 16 бит
Метод сжатия : С потерями
Размер потока : 295 Мбайт (4%)
Заголовок : Дубляж, R5
Язык : Russian
Default : Да
Forced : Нет

Аудио #2
Идентификатор : 3
Формат : AC-3
Формат/Информация : Audio Coding 3
Расширение режима : CM (complete main)
Параметр Endianness формата : Big
Идентификатор кодека : A_AC3
Продолжительность : 1 ч. 47 м.
Вид битрейта : Постоянный
Битрейт : 384 Кбит/сек
Каналы : 6 каналов
Расположение к
bb190e0b39f74c0493ea16d827f485099cba7e23Шестое чувство / The Sixth Sense (М. Найт Шьямалан, триллер, драма, детектив, 1999) [BDRip 1080p, Дублированный R5 + Профессиональный (многоголосый, закадровый) R5 + Оригинал (английский) + Subs] Шестое чувство / The Sixth Sense (М. Найт Шьямалан, триллер, драма, детектив, 1999) [BDRip 1080p, Дублированный R5 + Профессиональный (многоголосый, закадровый) R5 + Оригинал (английский) + Subs] " />

Аплоадер: Админ, дата: 14-08-2013, 20:33, торрент скачан: 359 раз

Понравилась раздача? Посмотрите эти:
  • Шестое чувство / The Sixth Sense (М. Найт Шьямалан / M. Night Shyamalan, Тр ...
  • Шестое чувство / The Sixth Sense (М. Найт Шьямалан, Триллер, драма, детекти ...
  • Византия / Byzantium (Нил Джордан, Фэнтези, триллер, драма, 2012) [BDRip 10 ...
  • Заклятие / The Conjuring (Джеймс Ван, ужасы, триллер, 2013) [BDRip 1080p, Д ...
  • Исходный код / Source Code (Дункан Джонс, фантастика, боевик, триллер, драм ...
  • Порочные игры / Stoker (Пак Чхан Ук, Триллер, драма, детектив, 2013) [BDRip ...
  • Порочные игры / Stoker (Пак Чхан Ук, Триллер, драма, детектив, 2013) [BDRip ...
  • Шестое чувство / The Sixth Sense (М. Найт Шьямалан, Триллер, драма, детекти ...
  • Перелом / Fracture (Грегори Хоблит, Триллер, драма, криминал, детектив, 200 ...
  • Ворон / The Raven (Джеймс МакТиг, Триллер, детектив, 2012) [BDRip 1080p, Ду ...
  • Шестое чувство / The Sixth Sense (М. Найт Шьямалан / M. Night Shyamalan, Тр ...
  • Суррогат / The Sessions (Бен Луин, Драма, 2012) [BDRip-AVC, Профессиональны ...
  • Шестое Чувство / The Sixth Sense (М. Найт Шьямалан / M. Night Shyamalan ,тр ...
  • Шестое чувство / The Sixth Sense (М. Найт Шьямалан, триллер, 1999) [BDrip 7 ...
  • Невероятный Халк / The Incredible Hulk (Луи Летерье, фантастика, боевик, тр ...
  • Шестое чувство / The Sixth Sense [1999, Триллер, Драма, Детектив, BDRiP] by ...
  • Шестое чувство / The Sixth Sense (М. Найт Шьямалан, Триллер, Драма, Детекти ...
  • Шестое чувство / The Sixth Sense (Брюс Уиллис,Тони Коллетт,Брюс Норрис,М. Н ...
  • Шестое чувство / The Sixth Sense (М. Найт Шайэмэлэн, Триллер, драма, детект ...
  • Шестое чувство / The Sixth Sense (М. Найт Шьямалан, трилер, 1999) [HDRip, П ...
  • Информация
    Посетители, находящиеся в группе Гости, не могут оставлять комментарии к данной публикации.