вход на сайт

Имя пользователя :
Пароль :

Восстановление пароля Регистрация
Королевский бродяга / Lu ding ji (Вонг Джинг, исторический, комедия, боевые искусства, 1992) [BDRip 720p, Авторский (одноголосый закадровый) (Кузнецов), Оригинал (Китайский), Sub]
Рейтинг:
(голосов: 1)



[img]{THEME}/images/logopost.png[/img]



Королевский бродяга / Lu ding ji


Год выпуска: 1992
Страна: Гонгконг
Производство: Wins movie production
Жанр: исторический, комедия, боевые искусства

Режиссёр:Вонг Джинг / Wong Jing
В ролях: Стивен Чоу, Нг Ман-Тат, Цуй Кам-Конг, Чингми Яу, Шарла Чеунг, Бриджит Лин, Вивиан Чан, Дамиан Лау

Перевод: Авторский (одноголосый закадровый), Оригинал (Китайский)
Озвучка: С. Кузнецов
Субтитры: английские

Описание: Проходимец Уилсон Бонд (Стивен Чоу) спасает от королевских войск опасного повстанца (Дамиан Лау), который вербует его на опасное задание - проникнуть в императорский дворец в Запретный Город и помочь изнутри сбросить династию Цин. Однако внутри его вербует советник императора (Нг Ман-Тат), имеющий виды на могущественную книгу "сорока двух движений", хранящуюся у вдовствующей императрицы. Одно за одним, на бедного Бонда сыплются двойные и тройные поручения, которые должен выполнять он один.Качество: BDRip 720p
Продолжительность: 01:50:13

Формат: MKV
Видео кодек: АVC
Аудио кодек: AC3
Видео: 1280x678 (1.888), 23.976 fps, x264 ~~6 519 kbps avg, 0.313 bit/pixel
Аудио: Russian Dolby AC3, 2ch, 48000Hz, 192 Kbps
Аудио2: Cantonese Dolby AC3, 6ch, 48000Hz, 640 Kbps


MediaInfo ▼
General
Complete name : E:Royal.Tramp.1992.BluRay.720p.AC3.2Audio.x264-CHD.mkv
Format : Matroska
File size : 5.66 GiB
Duration : 1h 50mn
Overall bit rate : 7 354 Kbps
Encoded date : UTC 2011-10-05 09:49:03
Writing application : mkvmerge v2.1.0 (Another Place To Fall) built on Aug 19 2007 13:40:07
Writing library : libebml v0.7.7 + libmatroska v0.8.1

Video
ID : 1
Format : AVC
Format/Info : Advanced Video Codec
Format profile : [email protected]
Format settings, CABAC : Yes
Format settings, ReFrames : 9 frames
Format settings, GOP : M=3, N=25
Muxing mode : Container [email protected]
Codec ID : V_MPEG4/ISO/AVC
Duration : 1h 50mn
Bit rate : 6 519 Kbps
Width : 1 280 pixels
Height : 678 pixels
Display aspect ratio : 1.888
Frame rate : 23.976 fps
Color space : YUV
Chroma subsampling : 4:2:0
Bit depth : 8 bits
Scan type : Progressive
Bits/(Pixel*Frame) : 0.313
Stream size : 4.91 GiB (87%)
Title : Royal.Tramp.1992.BluRay.720p.AC3.2Audio.x264-CHD
Writing library : x264 core 104 r1703 cd21d05
Encoding settings : cabac=1 / ref=9 / deblock=1:-3:-3 / analyse=0x3:0x113 / me=umh / subme=9 / psy=1 / psy_rd=1.10:0.15 / mixed_ref=1 / me_range=32 / chroma_me=1 / trellis=2 / 8x8dct=1 / cqm=0 / deadzone=21,11 / fast_pskip=0 / chroma_qp_offset=-2 / threads=12 / sliced_threads=0 / nr=0 / decimate=1 / interlaced=0 / constrained_intra=0 / bframes=6 / b_pyramid=2 / b_adapt=2 / b_bias=0 / direct=3 / weightb=1 / open_gop=0 / weightp=2 / keyint=250 / keyint_min=23 / scenecut=40 / intra_refresh=0 / rc_lookahead=60 / rc=2pass / mbtree=1 / bitrate=6519 / ratetol=1.0 / qcomp=0.70 / qpmin=10 / qpmax=51 / qpstep=4 / cplxblur=20.0 / qblur=0.5 / vbv_maxrate=50000 / vbv_bufsize=50000 / ip_ratio=1.40 / aq=1:0.70 / nal_hrd=none
Language : Chinese

Audio #1
ID : 2
Format : AC-3
Format/Info : Audio Coding 3
Mode extension : CM (complete main)
Codec ID : A_AC3
Duration : 1h 50mn
Bit rate mode : Constant
Bit rate : 192 Kbps
Channel(s) : 2 channels
Channel positions : Front: L R
Sampling rate : 48.0 KHz
Bit depth : 16 bits
Stream size : 151 MiB (3%)
Title : Одноголосый AC3 2.0CH 192kbps
Language : Russian

Audio #2
ID : 3
Format : AC-3
Format/Info : Audio Coding 3
Mode extension : CM (complete main)
Codec ID : A_AC3
Duration : 1h 50mn
Bit rate mode : Constant
Bit rate : 640 Kbps
Channel(s) : 6 channels
Channel positions : Front: L C R, Side: L R, LFE
Sampling rate : 48.0 KHz
Bit depth : 16 bits
Stream size : 505 MiB (9%)
Title : Cantonese AC3-EX 5.1CH 640kbps
Language : Chinese

Text
ID : 4
Format : UTF-8
Codec ID : S_TEXT/UTF8
Codec ID/Info : UTF-8 Plain Text
Language : English


7b08f2dded001ecea0f0b6a466da7ed5c88a27f0Королевский бродяга / Lu ding ji (Вонг Джинг, исторический, комедия, боевые искусства, 1992) [BDRip 720p, Авторский (одноголосый закадровый) (Кузнецов), Оригинал (Китайский), Sub] Королевский бродяга / Lu ding ji (Вонг Джинг, исторический, комедия, боевые искусства, 1992) [BDRip 720p, Авторский (одноголосый закадровый) (Кузнецов), Оригинал (Китайский), Sub] " />

Аплоадер: Админ, дата: 9-08-2013, 19:08, торрент скачан: 359 раз

Понравилась раздача? Посмотрите эти:
  • Добро пожаловать в капкан / Welcome to the Punch (Эрен Криви, боевик, трил ...
  • Смерть на похоронах / Death at a Funeral (Нил ЛаБут, комедия, 2010) [BDRip ...
  • Водитель / The Driver (Уолтер Хилл, Боевик, триллер, драма, криминал, 1978) ...
  • Муви 43 / Movie 43 (Стивен Брилл, Питер Фаррелли, Элизабет БэнксСтивен, ком ...
  • Джекпот / Arme Riddere (Магнус Мартенс, Боевик, комедия, криминал, 2011) [B ...
  • Убить по расписанию / Ticking Clock (Эрни Барбараш, фантастика, боевик, три ...
  • Цельнометаллическая оболочка / Full Metal Jacket (Стэнли Кубрик, драма, вое ...
  • Идеальный Голос / Pitch Perfect (Джейсон Мур, Комедия, музыка, 2012) [BDRip ...
  • Дети шпионов 4D / Spy Kids: All the Time in the World in 4D (Роберт Родриге ...
  • Мальчишник 2: Из Вегаса в Бангкок / The Hangover Part II (Тодд Филлипс, ком ...
  • Чаббчаббы спасают Рождество / The Chubbchubbs Save Xmas (Коуди Камерон, мул ...
  • Далеко-далеко / Far and Away (Рон Ховард, драма, мелодрама, приключения, ве ...
  • Красавчик Джонни / Johnny Handsome (Уолтер Хилл, Триллер, драма, криминал, ...
  • Китайский квартал / Chinatown (Роман Полански, Триллер, драма, криминал, де ...
  • Проект X: Дорвались / Project X (Нима Нуризаде, комедия, 2012) [BDRip 720p, ...
  • Ворон / The Raven (Джеймс МакТиг, Триллер, детектив, 2012) [BDRip 720p, Дуб ...
  • Пираньи 3DD / Piranha 3DD (Джон Гулажер, ужасы, триллер, комедия, 2012) [BD ...
  • Mylene Farmer / Du Temps [2011, Pop, HDTVRip]
  • Mylene Farmer / Bleu Noir [2011, Pop, HDTVRip]
  • СчастливоСпасибоЕщеПожалуйста / HappyThankYouMorePlease (Джош Рэднор / Josh ...
  • Информация
    Посетители, находящиеся в группе Гости, не могут оставлять комментарии к данной публикации.