вход на сайт

Имя пользователя :
Пароль :

Восстановление пароля Регистрация
Обливион / Oblivion (Джозеф Косински, фантастика, боевик, триллер, приключения, мелодрама, 2013) [BDRip 1080p, Дублированный, оригинал (английский), sub]
Рейтинг:
(голосов: 1)



[img]{THEME}/images/logopost.png[/img]



Обливион / Oblivion
«Earth is a memory worth fighting for.»

Год выпуска: 2013
Страна: США
Производство: Chernin Entertainment, Ironhead Studios, Radical Pictures, Radical Studios, Truenorth Productions, Universal Pictures
Жанр: фантастика, боевик, триллер, приключения, мелодрама

Режиссёр: Джозеф Косински
В ролях: Том Круз, Ольга Куриленко, Морган Фриман, Андреа Райзборо, Николай Костер-Вальдау, Мелисса Лео, Зои Белл, Эбигейл Лоу, Изабель Лоу, Дэвид Мэдисон

Перевод: Дублированный, оригинал (английский)
Субтитры: Русские, английские

Описание: Можно ли скучать по месту, в котором никогда не был, мечтать о девушке, которую никогда не видел? Добро пожаловать в будущее! Мы больше не можем называть Землю своим домом. Мы выиграли войну, но не смогли сохранить планету…




Дата премьеры (РФ): 11 апреля 2013, «UPI» IMAX
Дата премьеры (Мир): 10 апреля 2013

Качество: BDRip 1080р
Продолжительность: 02:04:42

Формат: MKV
Видео кодек: MPEG-4 AVC
Аудио кодек: AC3/ DTS
Cвойства видео: 1920x804 (2.37:1), 23.976 fps, 12.7 Мбит/с, 0.344 bit/pixel
Свойства аудио RU: 48 kHz, AC3 Dolby Digital, 3/2 (L,C,R,l,r) + LFE ch, ~448.00 kbps avg
Свойства аудио EN: 48 kHz, DTS, 3/2 (L,C,R,l,r) + LFE ch, ~1509 kbps avgТех. данные ▼Oblivion.2013.1080p.BluRay.Rus.Eng.Subs-HDWinG.mkv
Format : Matroska
Format version : Version 2
File size : 13.7 GiB
Duration : 2h 4mn
Overall bit rate : 15.8 Mbps
Movie name : Oblivion (2013)
Encoded date : UTC 2013-08-04 12:42:29
Writing application : mkvmerge v4.0.0 (The Stars were mine) сборка от Jun 6 2010 16:18:42
Writing library : libebml v1.0.0 + libmatroska v1.0.0

Video
ID : 1
Format : AVC
Format/Info : Advanced Video Codec
Format profile : [email protected]
Format settings, CABAC : Yes
Format settings, ReFrames : 5 frames
Codec ID : V_MPEG4/ISO/AVC
Duration : 2h 4mn
Bit rate : 12.7 Mbps
Width : 1 920 pixels
Height : 804 pixels
Display aspect ratio : 2.40:1
Frame rate : 23.976 fps
Color space : YUV
Chroma subsampling : 4:2:0
Bit depth : 8 bits
Scan type : Progressive
Bits/(Pixel*Frame) : 0.344
Stream size : 11.1 GiB (81%)
Title : Oblivion.2013.BluRay.1080p.DTS.x264-HDWinG
Writing library : x264 core 132 r2323+704+51 d571b1c tMod [[email protected]:2:0 X86_64]
Encoding settings : cabac=1 / ref=5 / deblock=1:-3:-3 / analyse=0x3:0x113 / me=umh / subme=11 / psy=1 / fade_compensate=0.00 / psy_rd=1.02:0.00 / mixed_ref=1 / me_range=32 / chroma_me=1 / trellis=2 / 8x8dct=1 / cqm=0 / deadzone=21,11 / fast_pskip=0 / chroma_qp_offset=-2 / threads=36 / lookahead_threads=6 / sliced_threads=0 / nr=0 / decimate=0 / interlaced=0 / bluray_compat=0 / constrained_intra=0 / fgo=0 / bframes=8 / b_pyramid=2 / b_adapt=2 / b_bias=0 / direct=3 / weightb=1 / open_gop=0 / weightp=2 / keyint=240 / keyint_min=24 / scenecut=40 / intra_refresh=0 / rc=crf / mbtree=0 / crf=17.5000 / qcomp=0.70 / qpmin=0 / qpmax=69 / qpstep=4 / ip_ratio=1.20 / pb_ratio=1.20 / aq=4:0.90 / aq-sensitivity=10.00 / aq-factor=1.00:1.00:1.00 / aq2=0 / aq3=0
Language : English
Default : Yes
Forced : Yes

Audio #1
ID : 2
Format : DTS
Format/Info : Digital Theater Systems
Codec ID : A_DTS
Duration : 2h 4mn
Bit rate mode : Constant
Bit rate : 755 Kbps
Channel(s) : 6 channels
Channel positions : Front: L C R, Side: L R, LFE
Sampling rate : 48.0 KHz
Bit depth : 24 bits
Compression mode : Lossy
Stream size : 673 MiB (5%)
Title : DTS 5.1 @ 755 kbps - Dub, BD CEE
Language : Russian
Default : No
Forced : Yes

Audio #2
ID : 3
Format : AC-3
Format/Info : Audio Coding 3
Mode extension : CM (complete main)
Format settings, Endianness : Big
Codec ID : A_AC3
Duration : 2h 4mn
Bit rate mode : Constant
Bit rate : 448 Kbps
Channel(s) : 6 channels
Channel positions : Front: L C R, Side: L R, LFE
Sampling rate : 48.0 KHz
Bit depth : 16 bits
Compression mode : Lossy
Stream size : 400 MiB (3%)
Title : AC3 5.1 @ 448 kbps - Dub, BD CEE
Language : Russian
Default : No
Force
4d1e91579e4dddaf883b6358fe31fe256719cfadОбливион / Oblivion (Джозеф Косински, фантастика, боевик, триллер, приключения, мелодрама, 2013) [BDRip 1080p, Дублированный, оригинал (английский), sub] Обливион / Oblivion (Джозеф Косински, фантастика, боевик, триллер, приключения, мелодрама, 2013) [BDRip 1080p, Дублированный, оригинал (английский), sub] " />

Аплоадер: Админ, дата: 4-08-2013, 21:56, торрент скачан: 359 раз

Понравилась раздача? Посмотрите эти:
  • Пастырь / Priest (Скотт Чарльз Стюарт, ужасы, фантастика, боевик, триллер, ...
  • Обливион / Oblivion (Джозеф Косински, Фантастика, боевик, триллер, приключе ...
  • Обливион / Oblivion (Джозеф Косински, Фантастика, боевик, триллер, приключе ...
  • Обливион / Oblivion (Джозеф Косински, фантастика, боевик, триллер, приключе ...
  • [iPhone, iPod] Обливион / Oblivion (Джозеф Косински, фантастика, боевик, тр ...
  • Хроника / Chronicle (Джошуа Транк, фантастика, боевик, триллер, драма, 2012 ...
  • Обливион / Oblivion (Джозеф Косински, фантастика, боевик, триллер, приключе ...
  • Обливион / Oblivion (Джозеф Косински, фантастика, боевик, триллер, приключе ...
  • Обливион / Oblivion (Джозеф Косински, Фантастика,Боевик,Триллер,Приключения ...
  • Обливион / Oblivion (Джозеф Косински, фантастика, боевик, триллер, приключе ...
  • Обливион / Oblivion (Джозеф Косински, фантастика, боевик, триллер, приключе ...
  • Обливион / Oblivion (Джозеф Косински, Фантастика, боевик, триллер, приключе ...
  • Обливион / Oblivion (Джозеф Косински, фантастика, боевик, триллер, приключе ...
  • Обливион / Oblivion (Джозеф Косински, Фантастика, боевик, триллер, приключе ...
  • Обливион / Oblivion (Джозеф Косински, Фантастика, боевик, триллер, приключе ...
  • Обливион / Oblivion (Джозеф Косински, Фантастика, боевик, триллер, приключе ...
  • Обливион / Oblivion (Джозеф Косински, Фантастика, боевик, триллер, приключе ...
  • Обливион / Oblivion (Джозеф Косински, Фантастика, боевик, триллер, приключе ...
  • Кровью и потом: Анаболики / Pain & Gain (Майкл Бэй, криминал, комедия, трил ...
  • Добро пожаловать в капкан / Welcome to the Punch (Эрен Криви, боевик, трил ...
  • [Трейлер №2] Обливион / Oblivion (Джозеф Косински, фантастика, боевик, трил ...
  • Закон доблести / Act of Valor (Майк МакКой, Скотт Во, боевик, триллер, прик ...
  • Морской бой / Battleship (Питер Берг, Фантастика, боевик, триллер, приключе ...
  • Коллекционер 2 / The Collection (Маркус Данстэн, ужасы, боевик, триллер, 20 ...
  • [Трейлер] Обливион / Oblivion (Джозеф Косински,фантастика, боевик, триллер, ...
  • Информация
    Посетители, находящиеся в группе Гости, не могут оставлять комментарии к данной публикации.