вход на сайт

Имя пользователя :
Пароль :

Восстановление пароля Регистрация
Ворон / The Raven (Джеймс МакТиг, Триллер, детектив, 2012) [BDRip 1080p, Дублированный, украинский, оригинал, sub]
Рейтинг:
(голосов: 1)



[img]{THEME}/images/logopost.png[/img]



Ворон / The Raven

Год выпуска: 2012
Страна: США, Испания, Венгрия
Производство:Intrepid Pictures
Жанр: Триллер, детектив

Режиссёр: Джеймс МакТиг
В ролях: Джон Кьюсак, Элис Ив, Люк Эванс, Брендан Глисон, Кевин МакНэлли. Оливер Джексон-Коэн, Джимми Юилл, Сэм Хэзелдайн, Пэм Феррис, Брендан Койл

Перевод: Дублированный, украинский, оригинал
Субтитры: русские, английские

Описание: Рассказ о последних днях жизни Эдгара Аллана По. Знаменитый поэт преследует серийного убийцу, чьи преступления очень похожи на те, что описаны в его произведениях.





Качество: BDRip 1080p
Продолжительность: 01:50:52

Формат: MKV
Видео кодек: MPEG-4 AVC
Аудио кодек: AC3
Cвойства видео: 1920x816 (2,40:1), 23.976 fps, MPEG-4 AVC8855 kbps avg, 0.240 bit/pixel
Свойства аудио 1: 48 kHz, AC3 Dolby Digital, 3/2 (L,C,R,l,r) + LFE ch, ~384.00 kbps avg | Дублированный
Свойства аудио 2: 48 kHz, AC3 Dolby Digital, 3/2 (L,C,R,l,r) + LFE ch, ~384.00 kbps avg | украинский
Свойства аудио 3: 48 kHz, AC3 Dolby Digital, 3/2 (L,C,R,l,r) + LFE ch, ~640.00 kbps avg | Оригинал (английский)Media Infо ▼Общее
Уникальный идентификатор : 230956891087528548547397806919691099861 (0xADC0ADE2B9B4C348BBBED78C0A8D5ED5)
Полное имя : E:The.Raven.2012.BDRip.1080p.Rus.Ukr.Eng.mkv
Формат : Matroska
Версия формата : Version 4 / Version 2
Размер файла : 7,94 Гбайт
Продолжительность : 1 ч. 50 м.
Общий поток : 10,3 Мбит/сек
Название фильма : Ворон / The Raven (2012)
Дата кодирования : UTC 2013-07-30 18:31:57
Программа кодирования : mkvmerge v6.3.0 (You cant stop me!) built on Jun 28 2013 20:09:41
Библиотека кодирования : libebml v1.3.0 + libmatroska v1.4.0

Видео
Идентификатор : 1
Формат : AVC
Формат/Информация : Advanced Video Codec
Профиль формата : [email protected]
Параметр CABAC формата : Да
Параметр ReFrames формата : 5 кадров
Идентификатор кодека : V_MPEG4/ISO/AVC
Продолжительность : 1 ч. 50 м.
Битрейт : 8855 Кбит/сек
Ширина : 1920 пикселей
Высота : 800 пикселей
Соотношение сторон : 2,40:1
Режим частоты кадров : Постоянный
Частота кадров : 23,976 кадра/сек
Цветовое пространство : YUV
Субдискретизация насыщенности : 4:2:0
Битовая глубина : 8 бит
Тип развёртки : Прогрессивная
Бит/(Пиксели*Кадры) : 0.240
Размер потока : 6,69 Гбайт (84%)
Заголовок : Release by N1NT3NDO
Библиотека кодирования : x264 core 135 r2345 f0c1c53
Настройки программы : cabac=1 / ref=5 / deblock=1:-3:-3 / analyse=0x3:0x133 / me=umh / subme=10 / psy=1 / psy_rd=1.00:0.00 / mixed_ref=1 / me_range=32 / chroma_me=1 / trellis=2 / 8x8dct=1 / cqm=0 / deadzone=21,11 / fast_pskip=0 / chroma_qp_offset=-2 / threads=12 / lookahead_threads=1 / sliced_threads=0 / nr=0 / decimate=0 / interlaced=0 / bluray_compat=0 / constrained_intra=0 / bframes=6 / b_pyramid=2 / b_adapt=2 / b_bias=0 / direct=3 / weightb=1 / open_gop=0 / weightp=2 / keyint=240 / keyint_min=23 / scenecut=40 / intra_refresh=0 / rc=2pass / mbtree=0 / bitrate=8855 / ratetol=1.0 / qcomp=0.60 / qpmin=0 / qpmax=69 / qpstep=4 / cplxblur=20.0 / qblur=0.5 / ip_ratio=1.40 / pb_ratio=1.30 / aq=1:0.70
Язык : English
Default : Да
Forced : Нет

Аудио #1
Идентификатор : 2
Формат : AC-3
Формат/Информация : Audio Coding 3
Расширение режима : CM (complete main)
Параметр Endianness формата : Big
Идентификатор кодека : A_AC3
Продолжительность : 1 ч. 50 м.
Вид битрейта : Постоянный
Битрейт : 384 Кбит/сек
Каналы : 6 каналов
Расположение каналов : Front: L C R, Side: L R, LFE
Частота : 48,0 КГц
Битовая глубина : 16 бит
Метод сжатия : С потерями
Размер потока : 305 Мбайт (4%)
Заголовок : Rus
Язык : Russian
Default : Да
Forced : Нет

Аудио #2
Идентификатор : 3
Формат : AC-3
Формат/Информация : Audio Coding 3
Расширение режима : CM (complete main)
Параметр Endianness формата : Big
Идентификатор кодека : A_AC3
Продолжительность : 1 ч. 50 м.
Вид битрейта : Постоянный
Битрейт : 384 Кбит/сек
Каналы : 6 каналов
Расположение каналов : Front:
cb9e00296819eabbe64523bc72e3278b9039ab2aВорон / The Raven (Джеймс МакТиг, Триллер, детектив, 2012) [BDRip 1080p, Дублированный, украинский, оригинал, sub] Ворон / The Raven (Джеймс МакТиг, Триллер, детектив, 2012) [BDRip 1080p, Дублированный, украинский, оригинал, sub] " />

Аплоадер: Админ, дата: 31-07-2013, 02:46, торрент скачан: 359 раз

Понравилась раздача? Посмотрите эти:
  • Одноклассники 2 / Grown Ups 2 (Деннис Дуган, Комедия, 2013) [BDRip-AVC, Про ...
  • Одноклассники 2 / Grown Ups 2 (Деннис Дуган, комедия, 2013) [BDRip 1080p, Д ...
  • Византия / Byzantium (Нил Джордан, Фэнтези, триллер, драма, 2012) [BDRip 10 ...
  • Мальчишник: Часть III / The Hangover Part III (Тодд Филлипс, комедия, 2013) ...
  • Иллюзия обмана / Now You See Me [Extended Cut] (Луи Летерье, триллер, крими ...
  • Заклятие / The Conjuring (Джеймс Ван, ужасы, триллер, 2013) [BDRip 720р, Ду ...
  • Заклятие / The Conjuring (Джеймс Ван, ужасы, триллер, 2013) [BDRip 1080p, Д ...
  • Порочные игры / Stoker (Пак Чхан Ук, Триллер, драма, детектив, 2013) [BDRip ...
  • Фантомы / Shutter (Масаюки Очиай, ужасы, триллер, детектив, 2008) [BDRip-AV ...
  • Перелом / Fracture (Грегори Хоблит, Триллер, драма, криминал, детектив, 200 ...
  • Шестое чувство / The Sixth Sense (М. Найт Шьямалан, триллер, драма, детекти ...
  • Суррогат / The Sessions (Бен Луин, Драма, 2012) [BDRip-AVC, Профессиональны ...
  • Ворон / The Raven (Джеймс МакТиг, триллер, детектив, 2012) [HDRip-AVC, Проф ...
  • Ворон / The Raven (Джеймс МакТиг, триллер, детектив, 2012) [ВDRip-AVC, Проф ...
  • Ворон / The Raven (Джеймс МакТиг, триллер, детектив, 2012) [HDRip-AVC, Проф ...
  • Ворон / The Raven (Джеймс МакТиг, Триллер, детектив, 2012) [BDRip 720p, Дуб ...
  • Невероятный Халк / The Incredible Hulk (Луи Летерье, фантастика, боевик, тр ...
  • [Phone, iPod] Ворон / The Raven (Джеймс МакТиг, триллер, детектив, 2012) [3 ...
  • Ворон / The Raven (Джеймс МакТиг, триллер, 2012) [DVD5, Профессиональный (п ...
  • Ворон / The Raven (Джеймс МакТиг, триллер, детектив, 2012) [320x132] [DVDRi ...
  • Ворон / The Raven (Джеймс МакТиг, Триллер, детектив , 2012) [HDRip, Дубляж, ...
  • Ворон / The Raven (Джеймс МакТиг, Триллер, детектив , 2012) [HDRip, Дубляж] ...
  • Ворон / The Raven (Джеймс МакТиг, триллер, детектив, 2012) [Blu-ray Disc 1 ...
  • Ворон / The Raven (Джеймс МакТиг, Триллер, Детектив , 2012) [320x240] [HDRi ...
  • Ворон / The Raven (Джеймс МакТиг, триллер, детектив, 2012) [HDRip, Професси ...
  • Информация
    Посетители, находящиеся в группе Гости, не могут оставлять комментарии к данной публикации.