вход на сайт

Имя пользователя :
Пароль :

Восстановление пароля Регистрация
Тысяча слов / A Thousand Words (Брайан Роббинс, Комедия, драма, 2009) [BDRip 1080р, Профессиональный (двухголосый закадровый), sub]
Рейтинг:
(голосов: 1)



[img]{THEME}/images/logopost.png[/img]



Тысяча слов / A Thousand Words

Год выпуска: 2009
Страна: США
Производство: DreamWorks SKG, Saturn Films, Varsity Pictures
Жанр: комедия, драма

Режиссёр: Брайан Роббинс
В ролях: Эдди Мёрфи, Керри Вашингтон, Эмануэл Рэгсдэйл, Джилл Бейси, Грег Коллинз, Роберт Лекванг, Майкл Дж. Уилкинсон, Линдси Нельсон, Майкл Коуди Гилберт, Лу Салиба
Перевод: Профессиональный (двухголосый закадровый)
Субтитры: Русские, английские, французские, испанские

Описание: Главный герой — трепло, каких свет не видывал. И вот однажды этот говорливый персонаж узнаёт, что ему осталось произнести вслух ровно тысячу слов, после чего он обязательно умрёт…




Дата премьеры (Мир): 9 марта 2012

Качество: BDRip 1080p
Продолжительность: 01:31:30

Формат: MKV
Видео кодек: H.264
Аудио кодек: AC3
Cвойства видео: 1920x800 (2.40:1) at 23.976 fps, AVC at 9 907 Kbps avg, 0.269 bit/pixel, crf
Свойства аудио: 48 kHz, AC3 Dolby Digital, 3/2 (L,C,R,l,r) + LFE ch, ~448.00 kbps avgMedia Info ▼Format : Matroska
Format version : Version 2
File size : 6.75 GiB
Duration : 1h 31mn
Overall bit rate : 10.6 Mbps
Movie name : -=LEONARDO=-
Encoded date : UTC 2013-07-25 07:33:21
Writing application : mkvmerge v5.8.0 (No Sleep / Pillow) built on Sep 2 2012 15:37:04
Writing library : libebml v1.2.3 + libmatroska v1.3.0

Video
ID : 1
Format : AVC
Format/Info : Advanced Video Codec
Format profile : [email protected]
Format settings, CABAC : Yes
Format settings, ReFrames : 4 frames
Codec ID : V_MPEG4/ISO/AVC
Duration : 1h 31mn
Bit rate : 9 907 Kbps
Width : 1 920 pixels
Height : 800 pixels
Display aspect ratio : 2.40:1
Frame rate mode : Constant
Frame rate : 23.976 fps
Color space : YUV
Chroma subsampling : 4:2:0
Bit depth : 8 bits
Scan type : Progressive
Bits/(Pixel*Frame) : 0.269
Stream size : 6.33 GiB (94%)
Writing library : x264 core 125 r2208 d9d2288
Encoding settings : cabac=1 / ref=4 / deblock=1:-3:-3 / analyse=0x3:0x133 / me=umh / subme=11 / psy=1 / psy_rd=1.01:0.10 / mixed_ref=1 / me_range=32 / chroma_me=1 / trellis=2 / 8x8dct=1 / cqm=0 / deadzone=21,11 / fast_pskip=0 / chroma_qp_offset=-3 / threads=12 / lookahead_threads=2 / sliced_threads=0 / nr=0 / decimate=1 / interlaced=0 / bluray_compat=0 / constrained_intra=0 / bframes=8 / b_pyramid=2 / b_adapt=2 / b_bias=0 / direct=1 / weightb=1 / open_gop=0 / weightp=2 / keyint=250 / keyint_min=23 / scenecut=40 / intra_refresh=0 / rc=crf / mbtree=0 / crf=17.8 / qcomp=0.60 / qpmin=0 / qpmax=69 / qpstep=4 / ip_ratio=1.40 / pb_ratio=1.30 / aq=2:1.00
Language : English
Default : Yes
Forced : No

Audio
ID : 2
Format : AC-3
Format/Info : Audio Coding 3
Mode extension : CM (complete main)
Format settings, Endianness : Big
Codec ID : A_AC3
Duration : 1h 31mn
Bit rate mode : Constant
Bit rate : 448 Kbps
Channel(s) : 6 channels
Channel positions : Front: L C R, Side: L R, LFE
Sampling rate : 48.0 KHz
Bit depth : 16 bits
Compression mode : Lossy
Stream size : 293 MiB (4%)
Language : Russian
Default : Yes
Forced : Yes

Text #1
ID : 3
Format : PGS
Muxing mode : zlib
Codec ID : S_HDMV/PGS
Codec ID/Info : The same subtitle format used on BDs/HD-DVDs
Language : English
Default : Yes
Forced : No

Text #2
ID : 4
Format : PGS
Muxing mode : zlib
Codec ID : S_HDMV/PGS
Codec ID/Info : The same subtitle format used on BDs/HD-DVDs
Language : English
Default : No
Forced : No

Text #3
ID : 5
Format : PGS
Muxing mode : zlib
Codec ID : S_HDMV/PGS
Codec ID/Info : The same subtitle format used on BDs/HD-DVDs
Language : French
Default : No
Forced : No

Text #4
ID : 6
Format : PGS
Muxing mode : zlib
Codec ID : S_HDMV/PGS
Codec ID/Info : The same subtitle format used on BDs/HD-DVDs
Language : Spanish
Default : No
Forced : No

Text #5
ID : 7
Format : PGS
Muxing mode : zlib
Codec ID : S_HDMV/PGS
Codec ID/Info : The same subtitle format used on BDs/HD-DVDs
Language : Russian
Default : No
Forced : No
773b69ecd3a045d4e60b685aa90f30a52139bcedТысяча слов / A Thousand Words (Брайан Роббинс, Комедия, драма, 2009) [BDRip 1080р, Профессиональный (двухголосый закадровый), sub] Тысяча слов / A Thousand Words (Брайан Роббинс, Комедия, драма, 2009) [BDRip 1080р, Профессиональный (двухголосый закадровый), sub] " />

Аплоадер: Админ, дата: 26-07-2013, 22:59, торрент скачан: 359 раз

Понравилась раздача? Посмотрите эти:
  • Каньоны / The Canyons (Пол Шредер, триллер, драма, 2013) [BDRip AVC, Дублир ...
  • Ученик мастера / Tai Chi 0 (Стивен Фанг, боевик, драма, 2012) [BDRip 720p, ...
  • Ледяной / The Iceman (Ариэль Вромен, драма, криминал, биография, 2013) [BDR ...
  • 42 / 42 (Брайан Хелгеленд, Драма, биография, спорт, 2013) [BDRip 720p, Проф ...
  • Ночь с Бет Купер / I Love You, Beth Cooper (Крис Коламбус, Комедия, 2009) [ ...
  • Тысяча слов / A Thousand Words (Брайан Роббинс, Комедия, драма, 2012) [BDRi ...
  • UFC The Ultimate 100 Knockouts - PPV [MMA,2013, HDTVRip 720p]
  • Тысяча слов / A Thousand Words (Брайан Роббинс, Фэнтези, драма, комедия, 20 ...
  • Гриффины: Это ловушка! / Family Guy Presents: Its a Trap! (Питер Шин / муль ...
  • Тысяча слов / A Thousand Words (Брайан Роббинс, комедия, драма, 2012) [BDRi ...
  • Слова / The Words (Брайан Клагман, Ли Стернтал, Драма, мелодрама, 2012) [BD ...
  • Слова / The Words [EXTENDED] (Ли Стернтал, Драма, мелодрама, 2012) [BDRip 7 ...
  • Mylene Farmer / Du Temps [2011, Pop, HDTVRip]
  • Mylene Farmer / Bleu Noir [2011, Pop, HDTVRip]
  • PBS: Природа – Гималаи / PBS: Nature – The Himalayas (Крис Морган, Докумен ...
  • [Трейлер] Тысяча слов / A Thousand Words (Брайан Роббинс, драма, комедия) [ ...
  • Madonna / Girl Gone Wild [2012, Pop, HDTV]
  • Тысяча слов / A Thousand Words (Брайан Роббинс, Комедия, драма 2012) [HDRip ...
  • Тысяча слов / A Thousand Words (Брайан Роббинс, драма, комедия, 2012) [Blu- ...
  • Тысяча слов / A Thousand Words (Брайан Роббинс, Комедия, Драма, 2012) [480x ...
  • 1000 слов / Тысяча слов / A Thousand Words (Брайан Роббинс, Комедия, драма ...
  • Тысяча слов / A Thousand Words (Брайан Роббинс, Фэнтези, драма, комедия, 20 ...
  • 1000 слов / Тысяча слов / A Thousand Words (Брайан Роббинс, Фэнтези, драма, ...
  • Тысяча слов / A Thousand Words (Брайан Роббинс, Фэнтези, драма, комедия, 20 ...
  • Тысяча слов / A Thousand Words (Брайан Роббинс, Фэнтези, драма, комедия, 20 ...
  • Информация
    Посетители, находящиеся в группе Гости, не могут оставлять комментарии к данной публикации.