вход на сайт

Имя пользователя :
Пароль :

Восстановление пароля Регистрация
Ночь с Бет Купер / I Love You, Beth Cooper (Крис Коламбус, Комедия, 2009) [BDRip 1080р, Двухголосый закадровый (НТВ+), Многоголосый закадровый (1 канал), оригинал (английский), sub]
Рейтинг:
(голосов: 1)



[img]{THEME}/images/logopost.png[/img]



Ночь с Бет Купер /I Love You, Beth Cooper
I Love You, Beth Cooper

Год выпуска: 2009
Страна: США, Канада
Производство: 1492 Pictures
Жанр: Комедия

Режиссёр: Крис Коламбус
В ролях: Хайден Панеттьери, Пол Руст, Джек Карпентер, Лоурен Лондон, Лоурен Сторм, Шоун Робертс, Джаред Кисо, Брендан Пенни, Мари Авгеропулос, Джош Эмерсон

Перевод: Двухголосый закадровый (НТВ+), Многоголосый закадровый (1 канал), оригинал (английский
Субтитры: Русские (Полные)

Описание: Главный ботаник и неудачник класса понимает, что терять ему уже нечего, поэтому он использует свою речь на церемонии вручения дипломов для того, чтобы публично признаться в любви к Бет Купер, королеве красоты и капитану чирлидерш. После чего вместе с девушкой оказывается вовлечен в серию злоключений.
Доп. информация: Чаптеры сохранены




Дата премьеры (Мир): 5 октября 2012

Качество: BDRip 1080p Исходник Blu-ray Remux)
Продолжительность: 01:41:48

Формат: MKV
Видео кодек: H.264
Аудио кодек: AC3
Cвойства видео: 1920x1038 (1.85:1), 23.976 fps, AVC, x264, [email protected] 10331 Кбит/сек, 0.216 bit/pixel, 2pass
Свойства аудио 1: 48 kHz, AC3 Dolby Digital, 2 ch, ~192.00 kbps avg | Двухголосый закадровый (НТВ+) / Русский
Свойства аудио 2: 48 kHz, AC3 Dolby Digital, 2 ch, ~224.00 kbps avg | Многоголосый закадровый (1 канал) / Русский
Свойства аудио 3: 48 kHz, DTS, 3/2 (L,C,R,l,r) + LFE ch, ~1536.00 kbps avg | Оригинал, АнглийскийMedia Info ▼Format : Matroska
Format version : Version 4 / Version 2
File size : 7.94 GiB
Duration : 1h 41mn
Overall bit rate : 11.2 Mbps
Movie name : Ночь с Бет Купер.(2009).BDRip.1080p.(DVD9).[NoLimits-Team]
Encoded date : UTC 2013-07-25 07:49:58
Writing application : mkvmerge v6.3.0 (You cant stop me!) built on Jun 28 2013 20:09:41
Writing library : libebml v1.3.0 + libmatroska v1.4.0

Video
ID : 1
Format : AVC
Format/Info : Advanced Video Codec
Format profile : [email protected]
Format settings, CABAC : Yes
Format settings, ReFrames : 4 frames
Codec ID : V_MPEG4/ISO/AVC
Duration : 1h 41mn
Bit rate : 10.3 Mbps
Width : 1 920 pixels
Height : 1 038 pixels
Display aspect ratio : 1.85:1
Frame rate mode : Constant
Frame rate : 23.976 fps
Color space : YUV
Chroma subsampling : 4:2:0
Bit depth : 8 bits
Scan type : Progressive
Bits/(Pixel*Frame) : 0.216
Stream size : 7.17 GiB (90%)
Title : Ночь с Бет Купер.(2009).BDRip.1080p.(DVD9).[NoLimits-Team]
Writing library : x264 core 135 r2345 f0c1c53
Encoding settings : cabac=1 / ref=4 / deblock=1:0:0 / analyse=0x3:0x113 / me=umh / subme=11 / psy=1 / psy_rd=1.00:0.00 / mixed_ref=1 / me_range=64 / chroma_me=1 / trellis=2 / 8x8dct=1 / cqm=0 / deadzone=21,11 / fast_pskip=0 / chroma_qp_offset=-2 / threads=12 / lookahead_threads=3 / sliced_threads=0 / nr=0 / decimate=1 / interlaced=0 / bluray_compat=0 / constrained_intra=0 / bframes=12 / b_pyramid=2 / b_adapt=2 / b_bias=0 / direct=3 / weightb=1 / open_gop=0 / weightp=2 / keyint=240 / keyint_min=23 / scenecut=40 / intra_refresh=0 / rc_lookahead=60 / rc=2pass / mbtree=1 / bitrate=10331 / ratetol=2.0 / qcomp=0.60 / qpmin=0 / qpmax=51 / qpstep=4 / cplxblur=20.0 / qblur=0.5 / ip_ratio=1.40 / aq=1:1.00
Language : English
Default : Yes
Forced : No

Audio #1
ID : 2
Format : AC-3
Format/Info : Audio Coding 3
Mode extension : CM (complete main)
Format settings, Endianness : Big
Codec ID : A_AC3
Duration : 1h 41mn
Bit rate mode : Constant
Bit rate : 192 Kbps
Channel(s) : 2 channels
Channel positions : Front: L R
Sampling rate : 48.0 KHz
Bit depth : 16 bits
Compression mode : Lossy
Stream size : 140 MiB (2%)
Title : Двухголосый закадровый (НТВ+)
Language : Russian
Default : Yes
Forced : No

Audio #2
ID : 3
Format : AC-3
Format/Info : Audio Coding 3
Mode extension : CM (complete main)
Format settings, Endianness : Big
Codec ID : A_AC3
Duration : 1h 41mn
Bit rate mode : Constant
Bit rate : 224 Kbps
Channel(s) : 2 channels
Channel positions : Front:
d2645736fa049d65685a03e142e810fc1b065bd5Ночь с Бет Купер / I Love You, Beth Cooper (Крис Коламбус, Комедия, 2009) [BDRip 1080р, Двухголосый закадровый (НТВ+), Многоголосый закадровый (1 канал), оригинал (английский), sub] Ночь с Бет Купер / I Love You, Beth Cooper (Крис Коламбус, Комедия, 2009) [BDRip 1080р, Двухголосый закадровый (НТВ+), Многоголосый закадровый (1 канал), оригинал (английский), sub] " />

Аплоадер: Админ, дата: 25-07-2013, 19:02, торрент скачан: 359 раз

Понравилась раздача? Посмотрите эти:
  • За кадром... / In a World...(Лэйк Белл, комедия, 2013) [BDRip-AVC, Професси ...
  • Погнали! / Getaway (Кортни Соломон, боевик, криминал, 2013) [BDRip 720p, Пр ...
  • Бэндслэм / Bandslam (Тодд Графф,Комедия, Мелодрама, 2009) [BDRip 1080p, Про ...
  • Ледяной / The Iceman (Ариэль Вромен, драма, криминал, биография, 2013) [BDR ...
  • Хроника / Chronicle (Джошуа Транк, фантастика, боевик, триллер, драма, 2012 ...
  • Тысяча слов / A Thousand Words (Брайан Роббинс, Комедия, драма, 2009) [BDRi ...
  • Погоня / Abduction (Джон Синглтон, боевик, триллер, драма, детектив, 2011) ...
  • Смерть на похоронах / Death at a Funeral (Нил ЛаБут, комедия, 2010) [BDRip ...
  • Отдел 13 / Diamant 13 (Гайллз Бэхат, Боевик, триллер, криминал, 2009) [BDRi ...
  • Запретная любовь / The Edge of Love (Джон Мэйбери, Драма, мелодрама, военны ...
  • Репортаж из преисподней / [REC] 2 (Жауме Балагуэро, Пако Пласа, ужасы, трил ...
  • Один Дома / Home Alone (Крис Коламбус, комедия, приключения, семейный, 1990 ...
  • Один дома 2: Затерянный в Нью-Йорке / Home Alone 2: Lost in New York (Крис ...
  • Далеко-далеко / Far and Away (Рон Ховард, драма, мелодрама, приключения, ве ...
  • Боже, благослови Америку / God Bless America (Боб Голдтуэйт, Драма, комедия ...
  • Викинги / Outlander (Ховард МакКейн, Фантастика, боевик, приключения, 2008) ...
  • PBS: Природа – Гималаи / PBS: Nature – The Himalayas (Крис Морган, Докумен ...
  • Ночь с Бет Купер / I Love You, Beth Cooper (Крис Коламбус, Комедия, 2009) [ ...
  • Ночь с Бет Купер / I Love You, Beth Cooper (Крис Коламбус, Комедия, 2009) [ ...
  • Футбольные гладиаторы / Ушедшее время / Awaydays (Пэт Холден, драма, кримин ...
  • Информация
    Посетители, находящиеся в группе Гости, не могут оставлять комментарии к данной публикации.