вход на сайт

Имя пользователя :
Пароль :

Восстановление пароля Регистрация
Хроника / Chronicle (Джошуа Транк, фантастика, боевик, триллер, драма, 2012) [BDRip 1080p, Дублированный + Оригинал (Английский), Sub RUS]
Рейтинг:
(голосов: 1)



[img]{THEME}/images/logopost.png[/img]



Хроника / Chronicle
«На что способен ты?»

Год выпуска: 2012
Страна:США
Производство: Adam Schroeder Productions,Davis Entertainment
Жанр: фантастика, боевик, триллер, драма

Режиссёр: Джошуа Транк
В ролях: Дэйн ДеХаан, Алекс Расселл, Майкл Б. Джордан, Майкл Келли, Эшли Хиншоу, Бо Петерсен, Анна Вуд, Руди Малкольм, Люк Тайлер, Кристал-Донна Робертс

Перевод: Дублированный + Оригинал (Английский)
Субтитры: Русские | Полные / Форсированные

Описание: Три школьника получают супер-способности после обнаружения ими упавшего метеорита. Скоро они попадут в водоворот событий, в котором откроются их темные стороны.



Премьера (мир): 28 января 2012
Премьера (РФ): 2 февраля 2012, «Двадцатый Век Фокс СНГ»
Релиз на Blu-Ray: 7 июня 2012, «Двадцатый Век Фокс СНГ»


Качество: BDRip 1080p / Сэмпл
Продолжительность: 01:29:06

Формат: MKV
Видео кодек: AVC
Аудио кодек: AC3
Видео: 1920x1040 (1,85:1), 23,97 fps, XviD, 11600 kbps avg,0.243 bit/pixel
Аудио #1: 48 kHz, AC3, 6 ch, ~448.00 kbps avg / RUS
Аудио #2: 48 kHz, DTS, 6 ch, ~640.00 kbps avg / ENG
"MediaInfo" ▼Общее
Полное имя : E:Hronika.(2012).BDRip.1080p.(DVD9).Rus.mkv
Format : Matroska
Format version : Version 4 / Version 2
File size : 7.90 GiB
Duration : 1h 29mn
Overall bit rate : 12.6 Mbps
Movie name : Хроника.(2012).BDRip.1080p.(DVD9).[NoLimits-Team]
Encoded date : UTC 2013-07-08 05:35:56
Writing application : mkvmerge v6.3.0 (You cant stop me!) built on Jun 28 2013 20:09:41
Writing library : libebml v1.3.0 + libmatroska v1.4.0

Video
ID : 1
Format : AVC
Format/Info : Advanced Video Codec
Format profile : [email protected]
Format settings, CABAC : Yes
Format settings, ReFrames : 4 frames
Codec ID : V_MPEG4/ISO/AVC
Duration : 1h 29mn
Bit rate : 11.6 Mbps
Width : 1 920 pixels
Height : 1 040 pixels
Display aspect ratio : 1.85:1
Frame rate mode : Constant
Frame rate : 23.976 fps
Color space : YUV
Chroma subsampling : 4:2:0
Bit depth : 8 bits
Scan type : Progressive
Bits/(Pixel*Frame) : 0.243
Stream size : 7.06 GiB (89%)
Title : Хроника.(2012).BDRip.1080p.(DVD9).[NoLimits-Team]
Writing library : x264 core 133 r2334 a3ac64b
Encoding settings : cabac=1 / ref=4 / deblock=1:0:0 / analyse=0x3:0x113 / me=umh / subme=11 / psy=1 / psy_rd=1.00:0.00 / mixed_ref=1 / me_range=64 / chroma_me=1 / trellis=2 / 8x8dct=1 / cqm=0 / deadzone=21,11 / fast_pskip=0 / chroma_qp_offset=-2 / threads=9 / lookahead_threads=2 / sliced_threads=0 / nr=0 / decimate=1 / interlaced=0 / bluray_compat=0 / constrained_intra=0 / bframes=12 / b_pyramid=2 / b_adapt=2 / b_bias=0 / direct=3 / weightb=1 / open_gop=0 / weightp=2 / keyint=240 / keyint_min=23 / scenecut=40 / intra_refresh=0 / rc_lookahead=60 / rc=2pass / mbtree=1 / bitrate=11612 / ratetol=2.0 / qcomp=0.60 / qpmin=0 / qpmax=51 / qpstep=4 / cplxblur=20.0 / qblur=0.5 / ip_ratio=1.40 / aq=1:1.00
Language : English
Default : Yes
Forced : No

Audio #1
ID : 2
Format : AC-3
Format/Info : Audio Coding 3
Mode extension : CM (complete main)
Format settings, Endianness : Big
Codec ID : A_AC3
Duration : 1h 29mn
Bit rate mode : Constant
Bit rate : 448 Kbps
Channel(s) : 6 channels
Channel positions : Front: L C R, Side: L R, LFE
Sampling rate : 48.0 KHz
Bit depth : 16 bits
Compression mode : Lossy
Stream size : 287 MiB (4%)
Title : Дублированный
Language : Russian
Default : Yes
Forced : No

Audio #2
ID : 3
Format : AC-3
Format/Info : Audio Coding 3
Mode extension : CM (complete main)
Format settings, Endianness : Big
Codec ID : A_AC3
Duration : 1h 29mn
Bit rate mode : Constant
Bit rate : 640 Kbps
Channel(s) : 6 channels
Channel positions : Front: L C R, Side: L R, LFE
Sampling rate : 48.0 KHz
Bit depth : 16 bits
Compression mode : Lossy
Stream size : 410 MiB (5%)
Title : Английский / Оригинал
Language : English
Default : No
Forced : No
a104d9cd29e4b6ef7934b968d9640e9b3001b714Хроника / Chronicle (Джошуа Транк, фантастика, боевик, триллер, драма, 2012) [BDRip 1080p, Дублированный + Оригинал (Английский), Sub RUS] Хроника / Chronicle (Джошуа Транк, фантастика, боевик, триллер, драма, 2012) [BDRip 1080p, Дублированный + Оригинал (Английский), Sub RUS] " />

Аплоадер: Админ, дата: 8-07-2013, 22:34, торрент скачан: 359 раз

Понравилась раздача? Посмотрите эти:
  • Два ствола / 2 Guns (Бальтасар Кормакур, боевик, триллер, драма, комедия, к ...
  • Погнали! / Getaway (Кортни Соломон, боевик, криминал, 2013) [BDRip 720p, Пр ...
  • Пастырь / Priest (Скотт Чарльз Стюарт, ужасы, фантастика, боевик, триллер, ...
  • Элитное общество / The Bling Ring (София Коппола, драма, криминал, 2013) [B ...
  • Четвертый вид / The Fourth Kind (Олатунде Осунсанми, ужасы, фантастика, 200 ...
  • Погоня / Abduction (Джон Синглтон, боевик, триллер, драма, детектив, 2011) ...
  • Обливион / Oblivion (Джозеф Косински, фантастика, боевик, триллер, приключе ...
  • Соучастник / Collateral (Майкл Манн, Триллер, драма, криминал, 2004) [BDRip ...
  • Жизнь Пи / Life Of Pi (Энг Ли, Драма, приключения, 2012) [BDRip 1080p, Проф ...
  • Толстяк на ринге / Here Comes the Boom (Фрэнк Корачи, Боевик, комедия, 201 ...
  • Фантомы / Shutter (Масаюки Очиай, ужасы, триллер, детектив, 2008) [BDRip-AV ...
  • Хроника / Chronicle (Джошуа Транк, фантастика, боевик, триллер, драма, 2012 ...
  • Хроника [Режиссёрская версия] / Chronicle [Directors cut] (Джошуа Транк, фа ...
  • Закон доблести / Act of Valor (Майк МакКой, Скотт Во, боевик, триллер, прик ...
  • Коллекционер 2 / The Collection (Маркус Данстэн, ужасы, боевик, триллер , 2 ...
  • Профессионал / Killer Elite (Гэри МакКендри, Боевик, Триллер, Криминал, 201 ...
  • Игра на выживание / Gone (Эйтор Далия, триллер, драма, 2012) [BDRip 1080p, ...
  • Хроника / Chronicle (Джошуа Транк, фантастика, боевик, триллер, драма, 2012 ...
  • Хроника [Режиссёрская версия] / Chronicle [Directors cut] (Джошуа Транк, фа ...
  • Мачо и ботан / 21 Jump Street (Фил Лорд, Крис Миллер, боевик, комедия, 2012 ...
  • Ворон / The Raven (Джеймс МакТиг, Триллер, детектив, 2012) [BDRip 720p, Дуб ...
  • Хижина в лесу / The Cabin in the Woods (Дрю Годдард, Ужасы, фантастика, три ...
  • Супер Майк / Magic Mike (Стивен Содерберг, Драма, комедия, 2012) [BDRip 108 ...
  • Mylene Farmer / Du Temps [2011, Pop, HDTVRip]
  • PBS: Природа – Гималаи / PBS: Nature – The Himalayas (Крис Морган, Докумен ...
  • Информация
    Посетители, находящиеся в группе Гости, не могут оставлять комментарии к данной публикации.