вход на сайт

Имя пользователя :
Пароль :

Восстановление пароля Регистрация
42 / 42 (Брайан Хелгеленд, Драма, биография, спорт, 2013) [BDRip 720p, Профессиональный (многоголосый), Оригинал (Английский), Sub, rus,eng]
Рейтинг:
(голосов: 1)



[img]{THEME}/images/logopost.png[/img]



42

«In a game divided by color, he made us see greatness.»

Год выпуска: 2013
Страна: США
Производство: Legendary Pictures,Warner Bros. Pictures
Жанр: Драма, биография, спорт

Режиссёр: Брайан Хелгеленд
В ролях:Харрисон Форд,Чэдвик Боузман,Николь Бихери,Кристофер,Мелони,Райан Мерриман,Лукас Блэк,Андре Холлэнд,Алан Тьюдик,Хамиш Линклэйтер,Т.Р. Найт

Перевод: Профессиональный (многоголосый), Оригинал(Английский)
Субтитры: Русские (iTunes), Английские (SDH)

Описание:Фильм посвящен тому, как Брэнч Рики и Джеки Робинсон уничтожили сегрегацию в бейсболе в 1947 году.Качество: BDRip 720p / Сэмпл
Продолжительность: 02:08:51

Формат: MKV
Видео кодек: H.264
Аудио кодек: AC3
Свойства видео: 1280x534 (2.40:1), 23,97 fps, H.264, 4500 kbps avg,0.275 bit/pixel
Свойства аудио#1: 48 kHz, AC3, 2 ch, ~192.00 kbps avg(русс)
Свойства аудио#2: 48 kHz, DTS, 6 ch, ~1500.00 kbps avg(англ)
"MediaInfo" ▼General

Complete name : 42.2013.P.BDRip.720p.mkv
Format : Matroska
Format version : Version 2
File size : 5.57 GiB
Duration : 2h 8mn
Overall bit rate : 6 219 Kbps
Encoded date : UTC 2013-07-04 11:58:33
Writing application : mkvmerge v2.9.8 (Cest le bon) built on Nov 20 2009 13:01:15
Writing library : libebml v0.7.9 + libmatroska v0.8.1

Video
ID : 1
Format : AVC
Format/Info : Advanced Video Codec
Format profile : [email protected]
Format settings, CABAC : Yes
Format settings, ReFrames : 12 frames
Codec ID : V_MPEG4/ISO/AVC
Duration : 2h 8mn
Bit rate : 4 500 Kbps
Width : 1 280 pixels
Height : 534 pixels
Display aspect ratio : 2.40:1
Frame rate : 23.976 fps
Color space : YUV
Chroma subsampling : 4:2:0
Bit depth : 8 bits
Scan type : Progressive
Bits/(Pixel*Frame) : 0.275
Stream size : 3.94 GiB (71%)
Writing library : x264 core 132 r2323+704+51 d571b1c tMod [[email protected]:2:0 X86_64]
Encoding settings : cabac=1 / ref=12 / deblock=1:-3:-3 / analyse=0x3:0x113 / me=umh / subme=11 / psy=1 / fade_compensate=0.00 / psy_rd=1.00:0.00 / mixed_ref=1 / me_range=32 / chroma_me=1 / trellis=2 / 8x8dct=1 / cqm=0 / deadzone=21,11 / fast_pskip=0 / chroma_qp_offset=-2 / threads=36 / lookahead_threads=4 / sliced_threads=0 / nr=0 / decimate=0 / interlaced=0 / bluray_compat=0 / constrained_intra=0 / fgo=0 / bframes=8 / b_pyramid=2 / b_adapt=2 / b_bias=0 / direct=3 / weightb=1 / open_gop=0 / weightp=2 / keyint=240 / keyint_min=24 / scenecut=40 / intra_refresh=0 / rc=2pass / mbtree=0 / bitrate=4500 / ratetol=1.0 / qcomp=0.70 / qpmin=0 / qpmax=69 / qpstep=4 / cplxblur=20.0 / qblur=0.5 / ip_ratio=1.20 / pb_ratio=1.20 / aq=4:0.80 / aq-sensitivity=10.00 / aq-factor=1.00:1.00:1.00 / aq2=0 / aq3=0
Language : English
Default : No
Forced : No

Audio #1
ID : 2
Format : AC-3
Format/Info : Audio Coding 3
Mode extension : CM (complete main)
Format settings, Endianness : Big
Codec ID : A_AC3
Duration : 2h 8mn
Bit rate mode : Constant
Bit rate : 192 Kbps
Channel(s) : 2 channels
Channel positions : Front: L R
Sampling rate : 48.0 KHz
Bit depth : 16 bits
Compression mode : Lossy
Stream size : 176 MiB (3%)
Language : Russian
Default : Yes
Forced : Yes

Audio #2
ID : 3
Format : DTS
Format/Info : Digital Theater Systems
Codec ID : A_DTS
Duration : 2h 8mn
Bit rate mode : Constant
Bit rate : 1 510 Kbps
Channel(s) : 6 channels
Channel positions : Front: L C R, Side: L R, LFE
Sampling rate : 48.0 KHz
Bit depth : 24 bits
Compression mode : Lossy
Delay relative to video : 11ms
Stream size : 1.35 GiB (24%)
Language : English
Default : No
Forced : No

Text #1
ID : 4
Format : PGS
Codec ID : S_HDMV/PGS
Codec ID/Info : The same subtitle format used on BDs/HD-DVDs
Language : English
Default : No
Forced : No

Text #2
ID : 5
Format : UTF-8
Codec ID : S_TEXT/UTF8
Codec ID/Info : UTF-8 Plain Text
Default : Yes
Forced : No

Text #3
6410d698d8e69d14a562f02930d2a8cdea205dd542 / 42 (Брайан Хелгеленд, Драма, биография, спорт, 2013) [BDRip 720p, Профессиональный (многоголосый), Оригинал (Английский), Sub, rus,eng] 42 / 42 (Брайан Хелгеленд, Драма, биография, спорт, 2013) [BDRip 720p, Профессиональный (многоголосый), Оригинал (Английский), Sub, rus,eng] " />

Аплоадер: Админ, дата: 4-07-2013, 19:06, торрент скачан: 359 раз

Понравилась раздача? Посмотрите эти:
  • Сезон убийц / Killing Season (Марк Стивен Джонсон, триллер, драма, боевик, ...
  • Каньоны / The Canyons (Пол Шредер, триллер, драма, 2013) [BDRip AVC, Дублир ...
  • Погнали! / Getaway (Кортни Соломон, боевик, криминал, 2013) [BDRip 720p, Пр ...
  • Ледяной / The Iceman (Ариэль Вромен, драма, криминал, биография, 2013) [BDR ...
  • Посылка / The Package (Джесси Джонсон, боевик, 2013) [BDRip 720p, Профессио ...
  • Паркер / Parker (Тейлор Хэкфорд, Боевик, триллер, криминал, 2013) [BDRip 7 ...
  • [EN] 42 / 42 (Брайан Хелгеленд, Драма, биография, спорт, 2013) [BDRip, Ориг ...
  • 42 / 42 (Брайан Хелгеленд, драма, биография, спорт, 2013) [BDRip, Профессио ...
  • Тысяча слов / A Thousand Words (Брайан Роббинс, Комедия, драма, 2012) [BDRi ...
  • Тысяча слов / A Thousand Words (Брайан Роббинс, Комедия, драма, 2009) [BDRi ...
  • 42 / 42 (Брайан Хелгеленд, Драма, биография, спорт, 2013) [BDRip 720p, Проф ...
  • Гость / The Caller (Мэттью Паркхилл, триллер, детектив, 2011) [BDRip 720p, ...
  • Запретная любовь / The Edge of Love (Джон Мэйбери, Драма, мелодрама, военны ...
  • Цель Номер Один / Zero Dark Thirty (Кэтрин Бигелоу, Триллер, драма, история ...
  • Жизнь Пи / Life Of Pi (Энг Ли, Драма, приключения, 2012) [BDRip 720p, Профе ...
  • Суррогат / The Sessions (Бен Луин, драма, 2012) [BDRip 720p, Профессиональн ...
  • Зубная фея 2 / Tooth Fairy 2 (Алекс Замм, комедия, семейный, 2012) [BDRip 7 ...
  • Домашняя работа / The Art of Getting By (Гэвин Вьесен, драма, мелодрама, 20 ...
  • «Весёлые» каникулы / Get the Gringo (Адриан Грюнберг, Боевик, комедия, 2012 ...
  • Ворон / The Raven (Джеймс МакТиг, Триллер, детектив, 2012) [BDRip 720p, Дуб ...
  • Супер Майк / Magic Mike (Стивен Содерберг, Драма, комедия, 2012) [BDRip 720 ...
  • Чемпионат Европы 2012 / 1/2 финала / Португалия - Испания / Спорт 1 HD [Фу ...
  • Чемпионат Европы 2012 / 1/2 финала / Германия - Италия / Спорт 1 HD [Футбо ...
  • Mylene Farmer / Du Temps [2011, Pop, HDTVRip]
  • Mylene Farmer / Bleu Noir [2011, Pop, HDTVRip]
  • Информация
    Посетители, находящиеся в группе Гости, не могут оставлять комментарии к данной публикации.