вход на сайт

Имя пользователя :
Пароль :

Восстановление пароля Регистрация
Незваные гости / Wedding Crashers (Дэвид Добкин, мелодрама, комедия, 2005) [BDRip 720p, Дубляж + оригинал (английский) + субтитры (рус,англ)]
Рейтинг:
(голосов: 1)



[img]{THEME}/images/logopost.png[/img]



Незваные гости / Wedding Crashers
Театральная Версия / Theatrical Cut

Год выпуска: 2005
Страна: США
Производство: New Line Cinema
Жанр: мелодрама, комедия

Режиссёр: Дэвид Добкин
В ролях: Оуэн Уилсон, Винс Вон, Кристофер Уокен, Рэйчел МакАдамс, Джейн Сеймур, Айла Фишер, Эллен Альбертини Дау, Кейр О`Доннелл, Брэдли Купер, Рон Кэнада

Перевод: Дублированный
Субтитры: русские, английские
Оригинальная аудиодорожка: английский

Описание: История о бесшабашных приключениях двух заядлых холостяков: Джона и Джереми, которые изобрели потрясающий способ знакомства с девушками. Они придумывают себе «легенды», проникают на чужие свадьбы и получают удовольствие от бесплатной еды, шампанского и множества красивых женщин, которые готовы на все, чтобы найти себе мужа.

Но лучшая часть плана — это вовремя исчезнуть под утро, дабы дама сердца не успела намекнуть на какие-либо обязательства. Только вся эта тактика умных бабников летит в тартарары, когда Джон неожиданно для самого себя влюбляется. Завоевать сердце любимой, значит пойти на крайний шаг: ворваться на свадьбу и украсть невесту…



MeDiAiNfO ▼
Format : Matroska
File size : 6.97 GiB
Duration : 1h 59mn
Overall bit rate : 8 387 Kbps
Encoded date : UTC 2011-06-14 16:51:33
Writing application : mkvmerge v4.6.0 (Still Crazy After All These Years) сборка от Apr 1 2011 21:01:49
Writing library : libebml v1.2.0 + libmatroska v1.1.0

Video
ID : 1
Format : AVC
Format/Info : Advanced Video Codec
Format profile : [email protected]
Format settings, CABAC : Yes
Format settings, ReFrames : 10 frames
Codec ID : V_MPEG4/ISO/AVC
Duration : 1h 59mn
Bit rate : 7 363 Kbps
Width : 1 280 pixels
Height : 544 pixels
Display aspect ratio : 2.35:1
Frame rate : 23.976 fps
Color space : YUV
Chroma subsampling : 4:2:0
Bit depth : 8 bits
Scan type : Progressive
Bits/(Pixel*Frame) : 0.441
Stream size : 5.98 GiB (86%)
Writing library : x264 core 115 r1937 aa21558
Encoding settings : cabac=1 / ref=10 / deblock=1:-2:-1 / analyse=0x3:0x133 / me=umh / subme=9 / psy=1 / psy_rd=1.00:0.10 / mixed_ref=1 / me_range=32 / chroma_me=0 / trellis=2 / 8x8dct=1 / cqm=0 / deadzone=21,11 / fast_pskip=0 / chroma_qp_offset=-3 / threads=12 / sliced_threads=0 / nr=0 / decimate=0 / interlaced=0 / bluray_compat=0 / constrained_intra=0 / bframes=10 / b_pyramid=2 / b_adapt=2 / b_bias=0 / direct=3 / weightb=1 / open_gop=0 / weightp=2 / keyint=250 / keyint_min=23 / scenecut=40 / intra_refresh=0 / rc_lookahead=80 / rc=2pass / mbtree=1 / bitrate=7363 / ratetol=1.0 / qcomp=0.70 / qpmin=0 / qpmax=69 / qpstep=4 / cplxblur=20.0 / qblur=0.5 / ip_ratio=1.40 / aq=1:2.00
Language : English

Audio #1
ID : 2
Format : AC-3
Format/Info : Audio Coding 3
Mode extension : CM (complete main)
Codec ID : A_AC3
Duration : 1h 59mn
Bit rate mode : Constant
Bit rate : 384 Kbps
Channel(s) : 6 channels
Channel positions : Front: L C R, Side: L R, LFE
Sampling rate : 48.0 KHz
Bit depth : 16 bits
Stream size : 327 MiB (5%)
Language : Russian

Audio #2
ID : 3
Format : AC-3
Format/Info : Audio Coding 3
Mode extension : CM (complete main)
Codec ID : A_AC3
Duration : 1h 59mn
Bit rate mode : Constant
Bit rate : 640 Kbps
Channel(s) : 6 channels
Channel positions : Front: L C R, Side: L R, LFE
Sampling rate : 48.0 KHz
Bit depth : 16 bits
Stream size : 545 MiB (8%)
Language : English

Text #1
ID : 4
Format : UTF-8
Codec ID : S_TEXT/UTF8
Codec ID/Info : UTF-8 Plain Text
Language : Russian

Text #2
ID : 5
Format : UTF-8
Codec ID : S_TEXT/UTF8
Codec ID/Info : UTF-8 Plain Text
Language : English


Качество: BDRip 720p
Продолжительность: 01:59:03

Формат: MKV
Видео кодек: MPEG4-AVC
Аудио кодек: AC3
Видео: 1280x544 (2.35:1);[email protected], 2pass, ~7363 Kbps; 23.976 fps; 0.441 bpp
Аудио#1: 48 kHz, AC3 Dolby Digital, 3/2 (L,C,R,l,r) + LFE ch, ~384.00 kbps
827f8ea258188dc4de714820eb687552dc89abf2Незваные гости / Wedding Crashers (Дэвид Добкин, мелодрама, комедия, 2005) [BDRip 720p, Дубляж + оригинал (английский) + субтитры (рус,англ)] Незваные гости / Wedding Crashers (Дэвид Добкин, мелодрама, комедия, 2005) [BDRip 720p, Дубляж + оригинал (английский) + субтитры (рус,англ)] " />

Аплоадер: Админ, дата: 27-06-2013, 18:05, торрент скачан: 359 раз

Понравилась раздача? Посмотрите эти:
  • 42 / 42 (Брайан Хелгеленд, Драма, биография, спорт, 2013) [BDRip 720p, Проф ...
  • Незваные гости [Театральная Версия] / Wedding Crashers [Theatrical Cut] (Дэ ...
  • Незваные гости [Театральная версия] / Wedding Crashers [Theatrical cut] (Дэ ...
  • Незваные гости [Театральная версия] / Wedding Crashers [Theatrical cut] (Дэ ...
  • Зубная фея 2 / Tooth Fairy 2 (Алекс Замм, комедия, семейный, 2012) [BDRip 7 ...
  • Незванные гости/Wedding Crashers
  • Цельнометаллическая оболочка / Full Metal Jacket (Стэнли Кубрик, драма, вое ...
  • Незваные гости (Расширенная версия) / Wedding Crashers (Unrated Cut) (Дэвид ...
  • Персонаж / Stranger Than Fiction (Марк Форстер, Комедия, драма, фантастика, ...
  • Бедная богатая девочка / Young Adult (Джейсон Райтман, драма, комедия, 2011 ...
  • Жажда странствий / Wanderlust (Дэвид Уэйн, Мелодрама, комедия, 2012) [BDRip ...
  • Идеальный Голос / Pitch Perfect (Джейсон Мур, Комедия, музыка, 2012) [BDRip ...
  • Бобер / The Beaver (Джоди Фостер, драма, 2011) [BDRip 720p, Дубляж + Оригин ...
  • Чаббчаббы спасают Рождество / The Chubbchubbs Save Xmas (Коуди Камерон, мул ...
  • Домашняя работа / The Art of Getting By (Гэвин Вьесен, драма, мелодрама, 20 ...
  • «Старый» Новый год / New Years Eve (Гэрри Маршалл, мелодрама, комедия, 2011 ...
  • Ворон / The Raven (Джеймс МакТиг, Триллер, детектив, 2012) [BDRip 720p, Дуб ...
  • Mylene Farmer / Du Temps [2011, Pop, HDTVRip]
  • Mylene Farmer / Bleu Noir [2011, Pop, HDTVRip]
  • Незванные гости / Wedding Crashers (Дэвид Добкин, комедия, 2005) [BDRip, Пр ...
  • Незванные гости / Wedding Crashers (Дэвид Добкин, комедия, 2005) [BDRip, Пр ...
  • Незваные гости / Wedding Crashers (Дэвид Добкин / David Dobkin, Комедия, ме ...
  • Незваные гости / Wedding Crashers (Дэвид Добкин / David Dobkin, Комедия, ме ...
  • Незваные гости / Wedding Crashers (Дэвид Добкин, мелодрама, комедия, 2005) ...
  • Незваные гости (Расширенная версия) / Wedding Crashers (Unrated Cut) (Дэви ...
  • Информация
    Посетители, находящиеся в группе Гости, не могут оставлять комментарии к данной публикации.