вход на сайт

Имя пользователя :
Пароль :

Восстановление пароля Регистрация
Паркер / Parker (Тейлор Хэкфорд, Боевик, триллер, криминал, 2013) [BDRip 720p, Дубляж, Оригинал (английский), Commentary, Sub]
Рейтинг:
(голосов: 1)



[img]{THEME}/images/logopost.png[/img]



Паркер / Parker
«To get away clean, you have to play dirty.»

Год выпуска: 2013
Страна: США
Производство:Mitchell Productions, Anvil Films, Current Entertainment, Incentive Filmed Entertainment, Sidney Kimmel Entertainment, Sierra Pictures (III)
Жанр: Боевик, триллер, криминал

Режиссёр: Тейлор Хэкфорд
В ролях: Джейсон Стэйтем, Дженнифер Лопез, Майкл Чиклис, Уенделл Пирс, Клифтон Коллинз мл., Бобби Каннавале, Пэтти ЛюПон, Карлос Карраско, Мика А. Хауптман, Эмма Бут

Перевод: Дубляж, Оригинал (английский), Commentary
Субтитры: Английские

Описание: Главный герой — профессиональный вор, руководствующийся собственным моральным кодексом, но способный запросто отправить на тот свет любого, кто перейдет ему дорогу.



Качество: BDRip 720p |
Продолжительность: 01:58:40 час.


Формат: MKV
Видео кодек: x264
Аудио кодек: AC3, DTS
Видео: 1280x530 (2.40:1), 23.976 fps, x264 ~5 733 kbps avg, 0.352 bit/pixel
Аудио#1: 48 kHz, DTS, 3/2 (L,C,R,l,r) + LFE ch, ~1510.00 kbps avg| Дубляж
Аудио#2: 48 kHz, DTS, 3/2 (L,C,R,l,r) + LFE ch, ~1510.00 kbps avg| Оригинал
Аудио#3: 48 kHz, AC3, 2/0 (L,R) ch, ~192.00 kbps avg |Commentary with Director Taylor Hackford|

Дата премьеры (мир): 12 октября 2012
Дата премьеры (РФ): 31 января 2013, «Централ Партнершип»

MediaInfo ▼Parker.2013.720p.Blu-Ray.Rus.2xEng-CHD.mkv
Format : Matroska
Format version : Version 2
File size : 7.41 GiB
Duration : 1h 58mn
Overall bit rate : 8 944 Kbps
Encoded date : UTC 2013-06-14 01:04:47
Writing application : mkvmerge v5.7.0 (The Whirlwind) built on Jul 8 2012 20:08:51
Writing library : libebml v1.2.3 + libmatroska v1.3.0

Video
ID : 1
Format : AVC
Format/Info : Advanced Video Codec
Format profile : [email protected]
Format settings, CABAC : Yes
Format settings, ReFrames : 12 frames
Codec ID : V_MPEG4/ISO/AVC
Duration : 1h 58mn
Bit rate : 5 733 Kbps
Width : 1 280 pixels
Height : 530 pixels
Display aspect ratio : 2.40:1
Frame rate mode : Constant
Frame rate : 23.976 fps
Color space : YUV
Chroma subsampling : 4:2:0
Bit depth : 8 bits
Scan type : Progressive
Bits/(Pixel*Frame) : 0.352
Stream size : 4.61 GiB (62%)
Writing library : x264 core 120 r2164+656 2ff844c
Encoding settings : cabac=1 / ref=12 / deblock=1:-3:-3 / analyse=0x3:0x113 / me=umh / subme=11 / psy=1 / fade_compensate=0.00 / psy_rd=1.10:0.15 / mixed_ref=1 / me_range=32 / chroma_me=1 / trellis=2 / 8x8dct=1 / cqm=0 / deadzone=21,11 / fast_pskip=0 / chroma_qp_offset=-2 / threads=18 / sliced_threads=0 / nr=0 / decimate=1 / interlaced=0 / bluray_compat=0 / constrained_intra=0 / fgo=0 / bframes=6 / b_pyramid=2 / b_adapt=2 / b_bias=0 / direct=3 / weightb=1 / open_gop=0 / weightp=2 / keyint=250 / keyint_min=23 / scenecut=40 / intra_refresh=0 / rc_lookahead=40 / rc=2pass / mbtree=0 / bitrate=5733 / ratetol=1.0 / qcomp=0.60 / qpmin=0 / qpmax=69 / qpstep=4 / cplxblur=20.0 / qblur=0.5 / vbv_maxrate=40000 / vbv_bufsize=30000 / nal_hrd=none / ip_ratio=1.40 / pb_ratio=1.30 / aq=1:0.80
Language : English
Default : Yes
Forced : No

Audio #1
ID : 2
Format : DTS
Format/Info : Digital Theater Systems
Mode : 16
Format settings, Endianness : Big
Codec ID : A_DTS
Duration : 1h 58mn
Bit rate mode : Constant
Bit rate : 1 510 Kbps
Channel(s) : 6 channels
Channel positions : Front: L C R, Side: L R, LFE
Sampling rate : 48.0 KHz
Bit depth : 24 bits
Compression mode : Lossy
Stream size : 1.25 GiB (17%)
Title : DTS 5.1 @ 1536 kbps, Dub Blu-ray
Language : Russian
Default : Yes
Forced : No

Audio #2
ID : 3
Format : DTS
Format/Info : Digital Theater Systems
Mode : 16
Format settings, Endianness : Big
Codec ID : A_DTS
Duration : 1h 58mn
Bit rate mode : Constant
Bit rate : 1 509 Kbps
Channel(s) : 6 channels
Channel positions : Front: L C R, Side: L R, LFE
Sampling rate : 48.0 KHz
Bit depth : 24 bits
Compression mode : Lossy
Delay relative to video : 11ms
Stream size : 1.25 GiB (17%)
Title : DTS 5.1 @ 1536 kbps
Language : English
Default : No
Forced : No

Audio
7ef201993c7a5f1879cf904b5bd749a9e7b6dde7Паркер / Parker (Тейлор Хэкфорд, Боевик, триллер, криминал, 2013) [BDRip 720p, Дубляж, Оригинал (английский), Commentary, Sub] Паркер / Parker (Тейлор Хэкфорд, Боевик, триллер, криминал, 2013) [BDRip 720p, Дубляж, Оригинал (английский), Commentary, Sub] " />

Аплоадер: Админ, дата: 14-06-2013, 14:42, торрент скачан: 359 раз

Понравилась раздача? Посмотрите эти:
  • Паркер / Parker (Тейлор Хэкфорд, Боевик, триллер, криминал, 2013) [HDRip, ...
  • Паркер / Parker (Тейлор Хэкфорд, Боевик, триллер, криминал, 2013) [Blu-ray ...
  • Паркер / Parker (Тейлор Хэкфорд, Боевик, триллер, криминал, 2013) [BDRip 1 ...
  • Паркер / Parker (Тейлор Хэкфорд, Боевик, криминал, 2013) [BDRip 1080p | US ...
  • Паркер / Parker (Тейлор Хэкфорд, боевик, триллер, криминал, 2013) [BDRip-AV ...
  • Обливион / Oblivion (Джозеф Косински, Фантастика, боевик, триллер, приключе ...
  • Паркер / Parker (Тейлор Хэкфорд, Боевик, триллер, криминал, 2013) [BDRip, ...
  • [LT]+[EN] Паркер / Parker (Тейлор Хэкфорд, боевик, триллер, криминал, 2013) ...
  • Паркер / Parker (Тейлор Хэкфорд, Боевик, триллер, криминал, 2013) [BDRip 7 ...
  • Паркер / Parker (Тейлор Хэкфорд, Боевик, триллер, криминал, 2013) [BDRip 1 ...
  • Паркер / Parker (Тейлор Хэкфорд, Боевик, триллер, криминал, 2013) [BDRip-A ...
  • Паркер / Parker (Тейлор Хэкфорд, боевик, триллер, криминал, 2013) [HDRip-AV ...
  • Паркер / Parker (Тейлор Хэкфорд, Боевик, триллер, криминал, 2013) [BDRip, ...
  • Паркер / Parker (Тейлор Хэкфорд, Боевик, триллер, криминал, 2013) [BDRip, ...
  • Паркер / Parker (Тейлор Хэкфорд / Taylor Hackford, Боевик, триллер, кримина ...
  • Паркер / Parker (Тейлор Хэкфорд, Боевик, триллер, криминал, 2013) [BDRip, ...
  • Паркер / Parker (Тейлор Хэкфорд, Боевик, триллер, криминал, 2013) [BDRip, ...
  • Паркер / Parker (Тейлор Хэкфорд, Боевик, триллер, криминал, 2013) [BDRip-AV ...
  • [iPhone, iPod] Паркер / Parker (Тейлор Хэкфорд, боевик, триллер, криминал, ...
  • Паркер / Parker (Тейлор Хэкфорд / Taylor Hackford, Боевик, триллер, кримина ...
  • Паркер / Parker (Тейлор Хэкфорд, Боевик, триллер, криминал, 2013) [DVD9, Д ...
  • Паркер / Parker (Тейлор Хэкфорд, боевик, триллер, криминал, 2013) [320x240] ...
  • Эволюция Борна / The Bourne Legacy (Тони Гилрой, Боевик, триллер, детектив, ...
  • [Трейлер] Паркер / Parker (Тейлор Хэкфорд, триллер, криминал) [HDRip, Дубли ...
  • [Трейлер] Паркер / Parker (Тейлор Хэкфорд, триллер, криминал, 2013) [HDTVRi ...
  • Информация
    Посетители, находящиеся в группе Гости, не могут оставлять комментарии к данной публикации.