вход на сайт

Имя пользователя :
Пароль :

Восстановление пароля Регистрация
Четвертый вид / The Fourth Kind (Олатунде Осунсанми, ужасы, фантастика, 2009) [BDRip 720p, Профессиональный (полное дублирование) + Оригинал (английский) + субтитры]
Рейтинг:
(голосов: 1)



[img]{THEME}/images/logopost.png[/img]



Четвёртый вид / The Fourth Kind

Год выпуска: 2009
Страна: США
Производство: Chambara Pictures
Жанр: ужасы, фантастика, триллер, детектив

Режиссёр: Олатунде Осунсанми
В ролях: Милла Йовович, Элиас Котеас, Уилл Пэттон, Энзо Силенти, Кори Джонсон, Хаким Кае-Казим, Алиша Ситон, Дафна Александр, Мия МакКенна-Брюс, Тайн Рафаэли

Перевод: Профессиональный (полное дублирование) + Оригинал (английский)
Субтитры: Русские, Английские [внешние .SRT]

Описание:На территории Аляски вот уже полвека происходят необъяснимые исчезновения людей. Несмотря на все усилия ФБР, расследования зашли в тупик, и тайна, по-прежнему, не раскрыта. Психиатр Эбигейл Тайлер начинает записывать на видео беседы со своими пациентами и обнаруживает нечто очень страшное и пугающее... В фильме кадры киносъемок переплетаются с документальными фрагментами, тем самым, придавая картине подлинную реалистичность...



Качество: BDRip 720p
Продолжительность: 01:38:00

Формат: MKV
Видео кодек: x264
Аудио кодек: AC3
Видео: 1280x544 (2.40:1), 23.976 fps, X264~ 5483 kbps avg, 0.18 bit/pixel
Аудио#1: 48 kHz, AC3, 6 ch, ~448 kbps avg - (Rus)
Аудио#2: 48 kHz, Ac3, 6 ch, ~448 kbps avg - (Eng)

"Mediainfo" ▼
Format : Matroska
Format version : Version 4 / Version 2
File size : 4.36 GiB
Duration : 1h 38mn
Overall bit rate : 6 373 Kbps
Movie name : Четвертый вид.(2009).BDRip.720p.(DVD5).[NoLimits-Team]
Encoded date : UTC 2013-06-11 13:05:08
Writing application : mkvmerge v6.0.0 (Coming Up For Air) built on Jan 20 2013 09:52:00
Writing library : libebml v1.3.0 + libmatroska v1.4.0

Video
ID : 1
Format : AVC
Format/Info : Advanced Video Codec
Format profile : [email protected]
Format settings, CABAC : Yes
Format settings, ReFrames : 12 frames
Codec ID : V_MPEG4/ISO/AVC
Duration : 1h 38mn
Bit rate : 5 483 Kbps
Width : 1 280 pixels
Height : 544 pixels
Display aspect ratio : 2.35:1
Frame rate mode : Constant
Frame rate : 23.976 fps
Color space : YUV
Chroma subsampling : 4:2:0
Bit depth : 8 bits
Scan type : Progressive
Bits/(Pixel*Frame) : 0.328
Stream size : 3.66 GiB (84%)
Title : Chetvertyj vid.(2009).BDRip.720p.(DVD5).mkv
Writing library : x264 core 133 r2334 a3ac64b
Encoding settings : cabac=1 / ref=12 / deblock=1:0:0 / analyse=0x3:0x113 / me=umh / subme=11 / psy=1 / psy_rd=1.00:0.10 / mixed_ref=1 / me_range=64 / chroma_me=1 / trellis=2 / 8x8dct=1 / cqm=0 / deadzone=21,11 / fast_pskip=0 / chroma_qp_offset=-3 / threads=9 / lookahead_threads=2 / sliced_threads=0 / nr=0 / decimate=0 / interlaced=0 / bluray_compat=0 / constrained_intra=0 / bframes=14 / b_pyramid=2 / b_adapt=2 / b_bias=0 / direct=3 / weightb=1 / open_gop=0 / weightp=2 / keyint=240 / keyint_min=23 / scenecut=40 / intra_refresh=0 / rc_lookahead=70 / rc=2pass / mbtree=1 / bitrate=5483 / ratetol=2.0 / qcomp=0.60 / qpmin=0 / qpmax=51 / qpstep=4 / cplxblur=20.0 / qblur=0.5 / ip_ratio=1.40 / aq=1:1.00
Language : English
Default : Yes
Forced : No

Audio #1
ID : 2
Format : AC-3
Format/Info : Audio Coding 3
Mode extension : CM (complete main)
Format settings, Endianness : Big
Codec ID : A_AC3
Duration : 1h 38mn
Bit rate mode : Constant
Bit rate : 448 Kbps
Channel(s) : 6 channels
Channel positions : Front: L C R, Side: L R, LFE
Sampling rate : 48.0 KHz
Bit depth : 16 bits
Compression mode : Lossy
Stream size : 314 MiB (7%)
Title : Дублированный
Language : Russian
Default : Yes
Forced : No

Audio #2
ID : 3
Format : AC-3
Format/Info : Audio Coding 3
Mode extension : CM (complete main)
Format settings, Endianness : Big
Codec ID : A_AC3
Duration : 1h 38mn
Bit rate mode : Constant
Bit rate : 448 Kbps
Channel(s) : 6 channels
Channel positions : Front: L C R, Side: L R, LFE
Sampling rate : 48.0 KHz
Bit depth : 16 bits
Compression mode : Lossy
Stream size : 314 MiB (7%)
Title : Английский / Оригинал
Language : English
Default : No
Forced : No

Text
ID : 4
Format : UTF-8
Codec
df8bafb4cc434a61ac5d1423fad2d54eecdc50bcЧетвертый вид / The Fourth Kind (Олатунде Осунсанми, ужасы, фантастика, 2009) [BDRip 720p, Профессиональный (полное дублирование) + Оригинал (английский) + субтитры] Четвертый вид / The Fourth Kind (Олатунде Осунсанми, ужасы, фантастика, 2009) [BDRip 720p, Профессиональный (полное дублирование) + Оригинал (английский) + субтитры] " />

Аплоадер: Админ, дата: 12-06-2013, 16:43, торрент скачан: 359 раз

Понравилась раздача? Посмотрите эти:
  • Четвертый вид / The Fourth Kind (Олатунде Осунсанми, фантастика, ужасы, три ...
  • Коллекционер [Дилогия] / The Collection [Dilogy] (Маркус Данстэн, Ужасы, бо ...
  • Погнали! / Getaway (Кортни Соломон, боевик, криминал, 2013) [BDRip 720p, Пр ...
  • Пастырь / Priest (Скотт Чарльз Стюарт, ужасы, фантастика, боевик, триллер, ...
  • Посылка / The Package (Джесси Джонсон, боевик, 2013) [BDRip 720p, Профессио ...
  • Хроника / Chronicle (Джошуа Транк, фантастика, боевик, триллер, драма, 2012 ...
  • Четвертый вид / The Fourth Kind (Олатунде Осунсанми, фантастика, ужасы, три ...
  • Соучастник / Collateral (Майкл Манн, Триллер, драма, криминал, 2004) [BDRip ...
  • Палата / The Ward (Джон Карпентер, Ужасы, триллер, 2010) [BDRip-AVC, Профес ...
  • UFC The Ultimate 100 Knockouts - PPV [MMA,2013, HDTVRip 720p]
  • Безопасность не гарантируется / Safety Not Guaranteed (Колин Треворроу, фан ...
  • Жизнь Пи / Life Of Pi (Энг Ли, Драма, приключения, 2012) [BDRip 720p, Профе ...
  • Четвёртый вид / The Fourth Kind (Олатунде Осунсанми / Olatunde Osunsanmi, у ...
  • Черное золото / Black Gold (Жан-Жак Анно, Драма, 2011) [BDRip-AVC, Професси ...
  • Коллекционер 2 / The Collection (Маркус Данстэн, ужасы, боевик, триллер , 2 ...
  • Четвертый вид / The Fourth Kind (Олатунде Осунсанми, Ужасы, фантастика, три ...
  • Чаббчаббы спасают Рождество / The Chubbchubbs Save Xmas (Коуди Камерон, мул ...
  • Четвертый вид / The Fourth Kind (Олатунде Осунсанми, Ужасы, фантастика, три ...
  • Четвертый вид / The Fourth Kind (Олатунде Осунсанми, Ужасы, фантастика, три ...
  • Четвёртый вид / The fourth kind (Олатунде Осунсанми, ужасы, 2009) [HDRip-AV ...
  • Четвёртый вид / The fourth kind (Олатунде Осунсанми, ужасы, 2009) [HDRip-AV ...
  • Четвертый вид / The Fourth Kind (Олатунде Осунсанми, ужасы, фантастика, 200 ...
  • Четвёртый вид / The Fourth Kind (Олатунде Осунсанми / Olatunde Osunsanmi, У ...
  • Четвертый вид / The Fourth Kind (Олатунде Осунсанми, Ужасы, фантастика, три ...
  • [Iphone, Ipad, Ipod]Четвертый вид / The Fourth Kind (Олатунде Осунсанми, уж ...
  • Информация
    Посетители, находящиеся в группе Гости, не могут оставлять комментарии к данной публикации.