вход на сайт

Имя пользователя :
Пароль :

Восстановление пароля Регистрация
Человек из стали / Man of Steel (Зак Снайдер, фантастика, фэнтези, боевик, приключения, 2013) [BDRip 1080p, Дубляж, Оригинал (Английский), Sub]
Рейтинг:
(голосов: 1)



[img]{THEME}/images/logopost.png[/img]



Человек из стали / Man of Steel

Год выпуска: 2013
Страна: США, Канада, Великобритания
Производство: Warner Bros., Legendary Pictures, Syncopy, DC Entertainment, Third Act Productions
Жанр: Фантастика, фэнтези, боевик, приключения

Режиссёр: Зак Снайдер
В ролях: Генри Кавилл, Эми Адамс, Майкл Шеннон, Кевин Костнер, Дайан Лэйн, Лоренс Фишбёрн, Антье Трое, Айелет Зурер, Рассел Кроу, Гарри Дж. Ленникс

Перевод: Дубляж, Оригинал (Английский)
Субтитры: русские (forced, full), английские (full, SDH)

Описание: Кларк Кент/Кал-Эл — молодой журналист, который чувствует себя чужаком из-за своей невероятной силы. Много лет назад он был отправлен на Землю с развитой планеты Криптон, и теперь задается вопросом: зачем? Воспитанный приемными родителями Мартой и Джонатаном Кентами, Кларк знает: обладать сверхспособностями — значит принимать сложные решения. Но когда человечество более всего нуждается в стабильности, оно подвергается нападению. Сможет ли герой восстановить мир, или воспользуется своей силой для того, чтобы окончательно его разрушить? Кларк должен стать супергероем известным как «Супермен», чтобы вселять надежду в сердца людей и защищать тех, кого он любит.



Качество: BDRip 1080p |Сэмпл |
Продолжительность: 02:23:03 час.

Формат: MKV
Видео кодек: x264
Аудио кодек: DTS, AC3
Видео: 1920x800 (2.40:1), 23.976 fps, x264 ~13.9 Mbps, 0.378 bit/pixel
Аудио#1: 48 kHz, AC3, 3/2 (L,C,R,l,r) + LFE ch, ~640.00 kbps avg- (Дубляж)
Аудио#2: 48 kHz/16-bit, DTS, 3/2 (L,C,R,l,r) + LFE ch, ~1536.00 kbps avg - (Оригинал)

Дата премьеры (мир): 10 июня 2013
Дата премьеры (РФ): 20 июня 2013, «Каро-Премьер»

MediaInfo ▼
General
Unique ID : 238832691300791371979524065581182561967 (0xB3AD80D0E504C567938CCBF071B12EAF)
Complete name : D:Man.of.Steel.2013.1080p.BluRay.DTS.x264-Talian-.mkv
Format : Matroska
Format version : Version 2
File size : 16.4 GiB
Duration : 2h 23mn
Overall bit rate : 16.4 Mbps
Movie name : -Talian-
Encoded date : UTC 2013-10-21 15:53:24
Writing application : mkvmerge v5.7.0 (The Whirlwind) built on Jul 8 2012 20:08:51
Writing library : libebml v1.2.3 + libmatroska v1.3.0

Video
ID : 1
Format : AVC
Format/Info : Advanced Video Codec
Format profile : [email protected]
Format settings, CABAC : Yes
Format settings, ReFrames : 5 frames
Codec ID : V_MPEG4/ISO/AVC
Duration : 2h 23mn
Bit rate : 13.9 Mbps
Width : 1 920 pixels
Height : 800 pixels
Display aspect ratio : 2.40:1
Frame rate : 23.976 fps
Color space : YUV
Chroma subsampling : 4:2:0
Bit depth : 8 bits
Scan type : Progressive
Bits/(Pixel*Frame) : 0.378
Stream size : 13.9 GiB (85%)
Title : HDMaNiAcS
Writing library : x264 core 138 r2358 9e941d1
Encoding settings : cabac=1 / ref=5 / deblock=1:-3:-3 / analyse=0x3:0x113 / me=tesa / subme=11 / psy=1 / psy_rd=1.10:0.05 / mixed_ref=1 / me_range=24 / chroma_me=1 / trellis=2 / 8x8dct=1 / cqm=0 / deadzone=21,11 / fast_pskip=0 / chroma_qp_offset=-3 / threads=6 / lookahead_threads=1 / sliced_threads=0 / nr=0 / decimate=0 / interlaced=0 / bluray_compat=0 / constrained_intra=0 / bframes=10 / b_pyramid=2 / b_adapt=2 / b_bias=0 / direct=3 / weightb=1 / open_gop=0 / weightp=2 / keyint=250 / keyint_min=24 / scenecut=40 / intra_refresh=0 / rc_lookahead=60 / rc=crf / mbtree=0 / crf=19.7 / qcomp=0.70 / qpmin=0 / qpmax=69 / qpstep=4 / vbv_maxrate=38000 / vbv_bufsize=30000 / crf_max=0.0 / nal_hrd=none / ip_ratio=1.40 / pb_ratio=1.30 / aq=2:0.60
Language : English
Default : No
Forced : No

Audio #1
ID : 2
Format : AC-3
Format/Info : Audio Coding 3
Mode extension : CM (complete main)
Format settings, Endianness : Big
Codec ID : A_AC3
Duration : 2h 23mn
Bit rate mode : Constant
Bit rate : 640 Kbps
Channel(s) : 6 channels
Channel positions : Front: L C R, Side: L R, LFE
Sampling rate : 48.0 KHz
Bit depth : 16 bits
Compression mode : Lossy
Stream size : 655 MiB (4%)
Title : DUB-Blu-Ray
Language : Russian
De
2abe81180b1fdb2c3afc1877d05bf89efae11e22Человек из стали / Man of Steel (Зак Снайдер, фантастика, фэнтези, боевик, приключения, 2013) [BDRip 1080p, Дубляж, Оригинал (Английский), Sub] Человек из стали / Man of Steel (Зак Снайдер, фантастика, фэнтези, боевик, приключения, 2013) [BDRip 1080p, Дубляж, Оригинал (Английский), Sub] " />

Аплоадер: Админ, дата: 25-10-2013, 18:27, торрент скачан: 359 раз

Понравилась раздача? Посмотрите эти:
  • Человек из стали / Man of Steel (Зак Снайдер, фантастика, фэнтези, боевик, ...
  • Человек из стали / Man of Steel (Зак Снайдер, фантастика, фэнтези, боевик, ...
  • Человек из стали / Man of Steel (Зак Снайдер, фантастика, фэнтези, боевик, ...
  • Человек из стали / Man of Steel (Зак Снайдер, фантастика, фэнтези, боевик, ...
  • Человек из стали / Man of Steel (Зак Снайдер, фантастика, фэнтези, боевик, ...
  • Человек из стали / Man of Steel (Зак Снайдер, фантастика, фэнтези, боевик, ...
  • Человек из стали / Man of Steel (Зак Снайдер, фантастика, фэнтези, боевик, ...
  • Человек из стали / Man of Steel (Зак Снайдер, Фантастика, фэнтези, боевик, ...
  • Человек из стали / Man of Steel (Зак Снайдер, фантастика, фэнтези, боевик, ...
  • Человек из стали / Man of Steel (Зак Снайдер, фантастика, фэнтези, боевик, ...
  • Человек из стали / Man of Steel (Зак Снайдер, фантастика, фэнтези, боевик, ...
  • [Трейлер #4] Человек из стали / Man of Steel (Зак Снайдер, фантастика, фэн ...
  • [Трейлер] Человек из стали / Man of Steel (Зак Снайдер, фантастика, фэнтез ...
  • [Доп. материалы] Человек из стали / Man of Steel (Зак Снайдер, фантастика, ...
  • [Доп. материалы] Человек из стали / Man of Steel (Зак Снайдер, фантастика, ...
  • [Трейлер 3] Человек из стали / Man of Steel (Зак Снайдер, фантастика, фэнт ...
  • [Трейлер 2] Человек из стали / Man of Steel (Зак Снайдер, фантастика, фэнт ...
  • [Трейлер 2] Человек из стали / Man of Steel (Зак Снайдер, фантастика, фэнт ...
  • [3D] Человек из стали 3D трейлер / Man of Steel 3D trailer (Зак Снайдер, Фа ...
  • [Тизер] Человек из стали / Man of Steel (Зак Снайдер, фантастика, фэнтези, ...
  • Информация
    Посетители, находящиеся в группе Гости, не могут оставлять комментарии к данной публикации.