вход на сайт

Имя пользователя :
Пароль :

Восстановление пароля Регистрация
Верное дельце / Une pure affaire (Александр Коффре, Боевик, Комедия, Криминал, 2011) [BDRip 720p, Профессиональный (многоголосый, закадровый) (НТВ+) + Оригинал (Французский)]
Рейтинг:
(голосов: 1)



[img]{THEME}/images/logopost.png[/img]



Верное дельце / Une pure affaire
------



Год выпуска: 2011
Страна: Франция
Производство: Canal+ [fr], BCompagnie Cinématographique Européenne, La
Жанр: Боевик, Комедия, Криминал

Режиссер: Александр Коффре
В ролях: Франсуа Дамиенс, Паскаль Арбийо, Лоран Лафитт, Жиль Коэн, Дидье Фламан, Николя Марье, Франсуаз Жарбело, Николя Булифар, Анн Дювернюиль, Шон Геган

Перевод: Профессиональный (многоголосый, закадровый) (НТВ+) + Оригинал (Французский)
Субтитры: Отсутствуют

Описание: Неудачник юрист с проблемами в семье на рождество находит чемодан полный кокаина. Неожиданная находка полностью меняет их жизнь.



Премьера (мир): 20 января 2011, ...
Премьера (РФ): 7 июня 2012, «Видеоимпульс», «Старлет-Медиа»

МедиаИнфо ▼Text

D:Une.Pure.Affaire.2011.BDRip 720p.mkv
General
UniqueID : 188896850446619780864950511899236030985 (0x8E1C35C6FCCC9C12B0E54DF988BEDA09)
Complete name : D:Une.Pure.Affaire.2011.Blu.Ray.720p.mkv
Format : Matroska
File size : 4.48 GiB
Duration : 1h 24mn
Overall bit rate : 7 560 Kbps
Movie name : CINEMANAIA.CC
Encoded date : UTC 2013-09-26 23:01:57
Writing application : mkvmerge v6.4.1 (Omega Point) built on Sep 16 2013 22:05:10
Writing library : libebml v1.3.0 + libmatroska v1.4.1
Video #1
ID : 1
Format : AVC
Format/Info : Advanced Video Codec
Format profile : [email protected]
Format settings, CABAC : Yes
Format settings, ReFrames : 5 frames
Codec ID : V_MPEG4/ISO/AVC
Duration : 1h 24mn
Bit rate : 5 857 Kbps
Width : 1 280 pixels
Height : 544 pixels
Display aspect ratio : 2.35:1
Frame rate : 25.000 fps
Color space : YUV
Chroma subsampling : 4:2:0
Bit depth : 8 bits
Scan type : Progressive
Bits/(Pixel*Frame) : 0.336
Stream size : 3.38 GiB (75%)
Title : CINEMANAIA.CC
Writing library : x264 core 115 r2008 4c552d8
Encoding settings : cabac=1 / ref=5 / deblock=1:0:0 / analyse=0x3:0x113 / me=umh / subme=7 / psy=1 / psy_rd=1.00:0.15 / mixed_ref=1 / me_range=16 / chroma_me=1 / trellis=1 / 8x8dct=1 / cqm=0 / deadzone=21,11 / fast_pskip=0 / chroma_qp_offset=-3 / threads=12 / sliced_threads=0 / nr=0 / decimate=1 / interlaced=0 / bluray_compat=0 / constrained_intra=0 / bframes=3 / b_pyramid=2 / b_adapt=1 / b_bias=0 / direct=1 / weightb=1 / open_gop=0 / weightp=2 / keyint=250 / keyint_min=25 / scenecut=40 / intra_refresh=0 / rc_lookahead=40 / rc=2pass / mbtree=1 / bitrate=5857 / ratetol=1.0 / qcomp=0.60 / qpmin=0 / qpmax=69 / qpstep=4 / cplxblur=20.0 / qblur=0.5 / ip_ratio=1.40 / aq=1:1.00
Language : English
Audio #2
ID : 2
Format : AC-3
Format/Info : Audio Coding 3
Mode extension : CM (complete main)
Codec ID : A_AC3
Duration : 1h 24mn
Bit rate mode : Constant
Bit rate : 192 Kbps
Channel(s) : 2 channels
Channel positions : Front: L R
Sampling rate : 48.0 KHz
Bit depth : 16 bits
Compression mode : Lossy
Stream size : 117 MiB (3%)
Title : Нтв+
Language : Russian
Au
78c921dc4efea11c408097a7b815f9e1bd80dabbВерное дельце / Une pure affaire (Александр Коффре, Боевик, Комедия, Криминал, 2011) [BDRip 720p, Профессиональный (многоголосый, закадровый) (НТВ+) + Оригинал (Французский)] Верное дельце / Une pure affaire (Александр Коффре, Боевик, Комедия, Криминал, 2011) [BDRip 720p, Профессиональный (многоголосый, закадровый) (НТВ+) + Оригинал (Французский)] " />

Аплоадер: Админ, дата: 28-09-2013, 22:53, торрент скачан: 359 раз

Понравилась раздача? Посмотрите эти:
  • Погнали! / Getaway (Кортни Соломон, боевик, криминал, 2013) [BDRip 720p, Пр ...
  • Верное дельце / Une pure affaire (Александр Коффре, Боевик, Комедия, Кримин ...
  • Посылка / The Package (Джесси Джонсон, боевик, 2013) [BDRip 720p, Профессио ...
  • Любовь без пересадок / Amour & turbulences (Александр Кастаньетти, мелодрам ...
  • Смерть на похоронах / Death at a Funeral (Нил ЛаБут, комедия, 2010) [BDRip ...
  • Отдел 13 / Diamant 13 (Гайллз Бэхат, Боевик, триллер, криминал, 2009) [BDRi ...
  • Безопасность не гарантируется / Safety Not Guaranteed (Колин Треворроу, фан ...
  • Водитель / The Driver (Уолтер Хилл, Боевик, триллер, драма, криминал, 1978) ...
  • Суррогат / The Sessions (Бен Луин, драма, 2012) [BDRip 720p, Профессиональн ...
  • Джекпот / Arme Riddere (Магнус Мартенс, Боевик, комедия, криминал, 2011) [B ...
  • Зубная фея 2 / Tooth Fairy 2 (Алекс Замм, комедия, семейный, 2012) [BDRip 7 ...
  • Убить по расписанию / Ticking Clock (Эрни Барбараш, фантастика, боевик, три ...
  • Шелуха / Husk (Бретт Симмонс, ужасы, триллер, 2011) [BDRip 720p, Профессион ...
  • Военные Игры / War Games: At The End Of The Day ( Козимо Алема, триллер, у ...
  • Исходный код / Source Code (Дункан Джонс, фантастика, боевик, триллер, 2011 ...
  • Дети шпионов 4D / Spy Kids: All the Time in the World in 4D (Роберт Родриге ...
  • Рыжий пес / Red Dog (Крив Стендерс, драма, комедия, семейный, 2011) [BDRip ...
  • Похищенная / A Lonely Place to Die (Джулиан Джилби, триллер, криминал, прик ...
  • Такси 2 / Taxi 2 (Жерар Кравчик, боевик, комедия, криминал, 2000) [BDRip 72 ...
  • Значит, война / This Means War (МакДжи, боевик, мелодрама, комедия, 2012) [ ...
  • «Весёлые» каникулы / Get the Gringo (Адриан Грюнберг, Боевик, комедия, 2012 ...
  • Любовь / Love (Уильям Юбэнк, Фантастика, драма, 2011) [BDRip 720p, Професси ...
  • Ворон / The Raven (Джеймс МакТиг, Триллер, детектив, 2012) [BDRip 720p, Дуб ...
  • Mylene Farmer / Du Temps [2011, Pop, HDTVRip]
  • Mylene Farmer / Bleu Noir [2011, Pop, HDTVRip]
  • Информация
    Посетители, находящиеся в группе Гости, не могут оставлять комментарии к данной публикации.