вход на сайт

Имя пользователя :
Пароль :

Восстановление пароля Регистрация
Богатенький Ричи / Ri¢hie Ri¢h / Richie Rich (Дональд Питри, комедия, семейный, 1994) [WEB-DL 1080p, Профессиональный (полное дублирование) + MVO x 2 + AVO (Гаврилов, Горчаков, Пронин) + SVO (МладоКашкин) + оригинал + subs (rus, eng)]
Рейтинг:
(голосов: 1)



[img]{THEME}/images/logopost.png[/img]



Богатенький Ричи / Ri¢hie Ri¢h / Richie Rich



Год выпуска: 1994
Страна: США
Производство: Warner Bros., Silver Pictures, Davis Entertainment
Жанр: комедия, семейный

Режиссёр: Дональд Питри
В ролях: Маколей Калкин, Джон Ларрокетт, Эдвард Херрманн, Кристин Эберсоул, Джонатан Хайд, Майкл МакШейн, Челси Росс, Марианджела Пино, Стефи Лайнбург, Майкл Маккароне

Перевод: Профессиональный (полное дублирование) Варус Видео, Профессиональный (многоголосый, закадровый) ОРТ, Профессиональный (многоголосый, закадровый), Авторский (одноголосый, закадровый) Андрей Гаврилов, Авторский (одноголосый, закадровый) Василий Горчаков, Авторский (одноголосый, закадровый) Антон Пронин, Любительский (одноголосый, закадровый) МладоКашкин, оригинал (английский)
Субтитры:русские, английские

Описание: Будучи единственным наследником богатейшего состояния мистера Рича, его сынишка Ричи живет в мире немыслимой роскоши. У него есть все, о чем только может мечтать мальчик этого возраста, все, что можно купить за деньги. Но этой тепличной жизни грозит опасность.
Коварный мошенник Лоуренс ван Доу решил прикарманить все состояние Ричей и уже придумал хитроумный план. И пока старшие Ричи путешествуют где-то в море на своей яхте, молодой Ричи с помощью новых друзей и верного пса по кличке Доллар раскрывает замысел и спасает семейное достояние. Для себя же Ричи открывает одну истину — настоящая дружба стоит гораздо больше, чем все его состояние.




МедиаИнфо ▼Complete name : Bogatenkij.Richi.1994.WEBDLRip1080p.mkv
Format : Matroska
Format version : Version 2
File size : 4.68 GiB
Duration : 1h 34mn
Overall bit rate : 7 093 Kbps
Encoded date : UTC 2013-10-30 18:44:27
Writing application : mkvmerge v4.0.0 (The Stars were mine) сборка от Jun 6 2010 16:18:42
Writing library : libebml v1.0.0 + libmatroska v1.0.0
Video
ID : 1
Format : AVC
Format/Info : Advanced Video Codec
Format profile : [email protected]
Format settings, CABAC : Yes
Format settings, ReFrames : 4 frames
Format settings, GOP : N=2
Codec ID : V_MPEG4/ISO/AVC
Duration : 1h 34mn
Bit rate : 5 224 Kbps
Width : 1 914 pixels
Height : 1 080 pixels
Display aspect ratio : 16:9
Frame rate mode : Constant
Frame rate : 23.976 fps
Color space : YUV
Chroma subsampling : 4:2:0
Bit depth : 8 bits
Scan type : Progressive
Bits/(Pixel*Frame) : 0.105
Stream size : 3.45 GiB (74%)
Language : English
Default : No
Forced : No
Color primaries : BT.709
Transfer characteristics : BT.709
Matrix coefficients : BT.709
Audio #1
ID : 2
Format : AC-3
Format/Info : Audio Coding 3
Mode extension : CM (complete main)
Format settings, Endianness : Big
Codec ID : A_AC3
Duration : 1h 34mn
Bit rate mode : Constant
Bit rate : 192 Kbps
Channel(s) : 2 channels
Channel positions : Front: L R
Sampling rate : 48.0 KHz
Bit depth : 16 bits
Compression mode : Lossy
Stream size : 130 MiB (3%)
Title : Dub
Language : Russian
Default : No
Forced : No
Audio #2
ID : 3
Format : AC-3
Format/Info : Audio Coding 3
Mode extension : CM (complete main)
Format settings, Endianness : Big
Codec ID : A_AC3
Duration : 1h 34mn
Bit rate mode : Constant
Bit rate : 192 Kbps
Channel(s) : 2 channels
Channel positions : Front: L R
Sampling rate : 48.0 KHz
Bit depth : 16 bits
Compression mode : Lossy
Stream size : 130 MiB (3%)
Title : MVO OPT
Language : Russian
Default : No
Forced : No
Audio #3
ID : 4
Format : AC-3
Format/Info : Audio Coding 3
Mode extension : CM (complete main)
Format settings, Endianness : Big
Codec ID : A_AC3
Duration : 1h 34mn
Bit rate mode : Constant
Bit rate : 192 Kbps
Channel(s) : 2 channels
Channel positions : Front: L R
Sampling rate : 48.0 KHz
Bit depth : 16 bits
Compression mode : Lossy
Stream size : 130 MiB (3%)
Title : MVO
Language : Russian
Default : No
Forced : No
Audio #4
ID : 5
Format : AC-3
Format/Info : Audio Coding 3
Mode extension : CM (complete main)
Format settings, Endianness : Big
Codec ID : A_AC3
Duration : 1h 34mn
Bit rate mode : Constant
Bit rate : 192 Kbps
Channel(s) : 2 channels
Channel posit
90e45ad2ed5c7c711ec99701ddc9f844896155cdБогатенький Ричи / Ri¢hie Ri¢h / Richie Rich (Дональд Питри, комедия, семейный, 1994) [WEB-DL 1080p, Профессиональный (полное дублирование) + MVO x 2 + AVO (Гаврилов, Горчаков, Пронин) + SVO (МладоКашкин) + оригинал + subs (rus, eng)] Богатенький Ричи / Ri¢hie Ri¢h / Richie Rich (Дональд Питри, комедия, семейный, 1994) [WEB-DL 1080p, Профессиональный (полное дублирование) + MVO x 2 + AVO (Гаврилов, Горчаков, Пронин) + SVO (МладоКашкин) + оригинал + subs (rus, eng)] " />

Аплоадер: Админ, дата: 2-11-2013, 21:53, торрент скачан: 359 раз

Понравилась раздача? Посмотрите эти:
  • Пастырь / Priest (Скотт Чарльз Стюарт, ужасы, фантастика, боевик, триллер, ...
  • Богатенький Ричи / Richie Rich (Дональд Питри, комедия, семейный, 1994) [HD ...
  • Ледяной / The Iceman (Ариэль Вромен, драма, криминал, биография, 2013) [BDR ...
  • Чемпионат Италии 2013-14 / 2-й тур / Preview / НТВ+ [30.08.2013, 720p, x26 ...
  • Чемпионат Германии 2013-14 / 4-й тур / Preview / НТВ+ [30.08.2013, 720p, x2 ...
  • Чемпионат Испании 2013-14 / 3-й тур / Preview / НТВ+ [30.08.2013, 720p, x26 ...
  • Чемпионат Англии 2013-14 / 3-й тур / Preview / НТВ+ [30.08.2013, 720p, x26 ...
  • Чемпионат Германии 2013-14 / 3-й тур / Preview / НТВ+ [23.08.2013, 720p, x2 ...
  • Чемпионат Италии 2013-14 / 1-й тур / Preview / НТВ+ [23.08.2013, 720p, x264 ...
  • Чемпионат Англии 2013-14 / 2-й тур / Preview / НТВ+ [23.08.2013, 720p, x264 ...
  • Мужество / Wymyk (Грег Зглински, драма, 2011) [DVDRip, Любительский (одного ...
  • Неудержимый / Bullet to the Head (Уолтер Хилл, Боевик, триллер, криминал, 2 ...
  • Железная леди / The Iron Lady (Филлида Ллойд, драма, биография, история, 20 ...
  • Нубы / Noobz (Блейк Фриман, Комедия, 2012) [BDRemux 1080p, Профессиональный ...
  • Богатенький Ричи / Richie Rich
  • Цельнометаллическая оболочка / Full Metal Jacket (Стэнли Кубрик, драма, вое ...
  • Богатенький Ричи / Ri¢hie Ri¢h (Дональд Питри, комедия, семейный, 1994) [DV ...
  • Один Дома / Home Alone (Крис Коламбус, комедия, приключения, семейный, 1990 ...
  • Один дома 2: Затерянный в Нью-Йорке / Home Alone 2: Lost in New York (Крис ...
  • Дым / Smoke (Уэйн Ван, Пол Остер, Драма, Комедия, 1995) [BDRip 1080р, Профе ...
  • Бульвар страха / Rosewood Lane (Виктор Сальва, Ужасы, триллер, 2011) [BD-Re ...
  • Призрак в школе / Haunted High (Джеффри Скотт Ландо, ужасы, фантастика, 201 ...
  • PBS: Природа – Гималаи / PBS: Nature – The Himalayas (Крис Морган, Докумен ...
  • Богатенький Ричи / Richie Rich (Доналд Петри /Donald Petrie, 1994 г., Комед ...
  • Супершторм в Сиэтле / Seattle Superstorm (Джейсон Бурк, фантастика, боевик ...
  • Информация
    Посетители, находящиеся в группе Гости, не могут оставлять комментарии к данной публикации.