вход на сайт

Имя пользователя :
Пароль :

Восстановление пароля Регистрация
Неспящие в Сиэтле / Sleepless in Seattle (Нора Эфрон, Драма, мелодрама, комедия, 1993) [BDRip 1080p, Профессиональный (полное дублирование), Оригинал (английский), субтитры]
Рейтинг:
(голосов: 1)



[img]{THEME}/images/logopost.png[/img]



Неспящие в Сиэтле / Sleepless in Seattle
«Не проспите свое счастье»


Год выпуска: 1993
Страна: США
Производство: TriStar Pictures
Жанр: Драма, мелодрама, комедия

Режиссёр: Нора Эфрон
В ролях: Том Хэнкс, Мег Райан, Росс Мэлинджер, Рита Уилсон, Билл Пуллман, Виктор Гарбер, Том Риис Фаррелл, Кэри Лоуэлл, Роб Райнер, Барбара Гэррик

Перевод: Профессиональный (полное дублирование), Оригинал (английский)
Субтитры: Русские

Описание: Поздней ночью радио доносит голос маленького ребенка, который ищет маму. Сотни женщин со всей страны откликаются на этот зов, и только одна из них понимает — отец ребенка и она — предназначены друг для друга, пусть даже между ними сотни миль. И не беда, что она обручена, а ее новый избранник еще не знает о ней. Его единственная и далекая ждет и ищет его, влюбившись с первого звука его голоса.

СЭМПЛ

Автор риппа NIKI
Качество: BDRip 10800p Исходжник Blu Ray 1080p
Продолжительность: 01:45:05

Формат: MKV
Главы: нет
Видео кодек: AVC
Аудио кодек: AC3, DTS
Видео:1920x1040 , (16:9), 23,976 кадра/сек, 11,0 Мбит/сек, 0.252 Бит/Пиксель
Аудио 1: Русский, 192 Кбит/сек, AC-3, 2 канала
Аудио 2: Английская, 1510 Кбит/сек, DTS, 6 каналов

MediaInfo ▼
Полное имя : D:Неспящие в Сиэтле.BDrip1080p.mkv
Формат : Matroska
Размер файла : 10,4 Гбайт
Продолжительность : 1 ч. 45 м.
Общий поток : 14,1 Мбит/сек
Название фильма : Неспящие в Сиэтле.BDrip1080p [Release by NIKI for KAZTORKA.ORG]
Дата кодирования : UTC 2013-12-05 09:48:56
Программа кодирования : mkvmerge v6.6.0 (The Edge Of The In Between) built on Dec 1 2013 17:55:00
Библиотека кодирования : libebml v1.3.0 + libmatroska v1.4.1
Обложка : Yes

Видео
Идентификатор : 1
Формат : AVC
Формат/Информация : Advanced Video Codec
Профиль формата : [email protected]
Параметр CABAC формата : Да
Параметр ReFrames формата : 5 кадров
Идентификатор кодека : V_MPEG4/ISO/AVC
Продолжительность : 1 ч. 45 м.
Битрейт : 12,1 Мбит/сек
Номинальный битрейт : 11,0 Мбит/сек
Ширина : 1920 пикс.
Высота : 1040 пикс.
Соотношение сторон : 16:9
Режим частоты кадров : Переменный
Частота кадров : 23,976 кадр/сек
Цветовое пространство : YUV
Подвыборка цветности : 4:2:0
Битовая глубина : 8 бит
Тип развёртки : Прогрессивная
Бит/(Пиксели*Кадры) : 0.252
Размер потока : 8,87 Гбайт (86%)
Заголовок : Неспящие в Сиэтле.BDrip1080p [Release by NIKI for KAZTORKA.ORG]
Библиотека кодирования : x264 core 128 r2216M 198a7ea
Настройки программы : cabac=1 / ref=6 / deblock=1:-1:-1 / analyse=0x3:0x133 / me=tesa / subme=11 / psy=1 / psy_rd=1.00:0.15 / mixed_ref=1 / me_range=32 / chroma_me=1 / trellis=2 / 8x8dct=1 / cqm=0 / deadzone=21,11 / fast_pskip=1 / chroma_qp_offset=-3 / threads=4 / lookahead_threads=1 / sliced_threads=0 / nr=0 / decimate=1 / interlaced=0 / bluray_compat=0 / constrained_intra=0 / bframes=6 / b_pyramid=1 / b_adapt=2 / b_bias=0 / direct=3 / weightb=1 / open_gop=0 / weightp=2 / keyint=230 / keyint_min=23 / scenecut=40 / intra_refresh=0 / rc_lookahead=120 / rc=2pass / mbtree=1 / bitrate=11000 / ratetol=1.0 / qcomp=0.60 / qpmin=10 / qpmax=51 / qpstep=4 / cplxblur=20.0 / qblur=0.5 / vbv_maxrate=24000 / vbv_bufsize=31250 / nal_hrd=none / ip_ratio=1.40 / aq=1:1.00
Язык : Russian

Аудио #1
Идентификатор : 2
Формат : AC-3
Формат/Информация : Audio Coding 3
Профиль формата : Dolby Digital
Расширение режима : CM (complete main)
Идентификатор кодека : A_AC3
Продолжительность : 1 ч. 45 м.
Вид битрейта : Постоянный
Битрейт : 192 Кбит/сек
Каналы : 2 канала
Расположение каналов : Front: L R
Частота : 48,0 КГц
Битовая глубина : 16 бит
Метод сжатия : С потерями
Размер потока : 144 Мбайт (1%)
Заголовок : AC3, 192 Кбит/сек, 2 канала, 48,0 КГц |Дубляж|
Язык : Russian

Аудио #2
Идентификатор : 3
Формат : DTS
Формат/Информация : Digital Theater Systems
Профиль формата : MA / Core
Идентификатор кодека : A_DTS
Продолжительность : 1 ч. 45 м.
Вид битрейта : Переменный
Битрейт : 1561 Кбит/сек / 1510 Кбит/сек
Каналы : 6 ка
5a80320e6d9ccda88277a39ad11b450b7ad537e1Неспящие в Сиэтле / Sleepless in Seattle (Нора Эфрон, Драма, мелодрама, комедия, 1993) [BDRip 1080p, Профессиональный (полное дублирование), Оригинал (английский), субтитры] Неспящие в Сиэтле / Sleepless in Seattle (Нора Эфрон, Драма, мелодрама, комедия, 1993) [BDRip 1080p, Профессиональный (полное дублирование), Оригинал (английский), субтитры] " />

Аплоадер: Админ, дата: 5-12-2013, 16:23, торрент скачан: 359 раз

Понравилась раздача? Посмотрите эти:
  • Погнали! / Getaway (Кортни Соломон, боевик, криминал, 2013) [BDRip 1080p, П ...
  • Неспящие в Сиэтле / Sleepless in Seattle (Нора Эфрон, Драма, мелодрама, ком ...
  • Неспящие в Сиэтле / Sleepless in Seattle (Нора Эфрон, Драма, мелодрама, ком ...
  • Заклятие / The Conjuring (Джеймс Ван, ужасы, триллер, 2013) [BDRip 1080p, Д ...
  • Исходный код / Source Code (Дункан Джонс, фантастика, боевик, триллер, драм ...
  • Филадельфия / Philadelphia (Джонатан Демме, Драма, 1993) [BDRip-AVC, Профес ...
  • Неспящие в Сиэтле / Sleepless in Seattle (Нора Эфрон, Драма, мелодрама, ком ...
  • Даю год / I Give It a Year (Дэн Мазер, мелодрама, комедия, 2012) [BDRip-AVC ...
  • Неспящие в Сиэтле / Sleepless in Seattle (Нора Эфрон, Драма, мелодрама, ком ...
  • Суррогат / The Sessions (Бен Луин, Драма, 2012) [BDRip-AVC, Профессиональны ...
  • Неспящие в Сиэтле (Бессонница в Сиэтле) / Sleepless in Seattle (Нора Эфрон/ ...
  • Неспящие в Сиэтле / Sleepless in Seattle (Нора Эфрон / комедия / 1993)[HDTV ...
  • Заражение / Contagion (Стивен Содерберг, Фантастика, 2011) [BDRip 1080p, Пр ...
  • Схватка / The Grey (Джо Карнахан, боевик, триллер, драма, приключения, 2012 ...
  • Стыд / Shame (Стив МакКуин, драма, 2011) [BDRip 1080p, полное дублирование, ...
  • Лето. Одноклассники. Любовь / LOL (Лиза Азуэлос, Драма, мелодрама, комедия, ...
  • Павшая империя / Hirokin (Алехо Мо-Сан, фантастика, боевик, драма, приключе ...
  • Счастливчик / The Lucky One (Скотт Хикс, Драма, мелодрама, 2012) [BDRip 108 ...
  • Неспящие в Сиэтле / Sleepless in Seattle (Нора Эфрон / комедия / 1993)[DVDR ...
  • Неспящие в Сиэтле / Sleepless in Seattle (Нора Эфрон / комедия / 1993)[HDTV ...
  • Информация
    Посетители, находящиеся в группе Гости, не могут оставлять комментарии к данной публикации.