вход на сайт

Имя пользователя :
Пароль :

Восстановление пароля Регистрация
Бэндслэм / Bandslam (Тодд Графф,Комедия, Мелодрама, 2009) [BDRip 1080p, Профессиональный (многоголосый, закадровый) + Оригинал (Английский) + Субтитры]
Рейтинг:
(голосов: 1)



[img]{THEME}/images/logopost.png[/img]



Бэндслэм / Bandslam
«Музыка ворвётся в твой мир!»

Год выпуска: 2009
Страна: США
Производство: Goldsmith-Thomas Productions
Жанр: Комедия, Мелодрама
Режиссёр: Тодд Графф
В ролях: Элисон Мичалка, Ванесса Энн Хадженс, Гэлан Коннелл, Скотт Портер, Райан Доноху, Чарли Сэкстон, Лиза Кудроу, Тим Джо, Элви Йост, Лиза Чунг

Перевод: Профессиональный (многоголосый, закадровый) R5 + Оригинал (Английский)
Субтитры: Русские | Полные, Английские | Полные

Описание: По уши влюбленный в музыку Уилл Бартон поступает в новую школу, где есть свои популярные музыкальные группы. На него обращает внимание одна из самых симпатичных и продвинутых девчонок, Шарлотта. Вместе они создают группу и находят свой уникальный стиль. Уилл должен доказать всем, что музыка для него - не просто увлечение. Однажды он получает предложение, которое бывает только раз в жизни, но тут возникают другие проблемы...Автор рипа:

Качество: BDRip 1080p (исходник Blu-ray Remux)
Продолжительность: 01:51:21

Формат: MKV
Чаптеры (главы): есть
Видео кодек: AVC, x264
Аудио кодек: AC3
Видео: 1920x816, 8885 Кбит/сек, 23,976 кадр/сек, AVC, x264, [email protected], 2.35:1, 0.237 Бит/[Пиксели*Кадры], 2pass
Аудио 1: AC-3, 448 Кбит/сек, 6 канала(ов), 48,0 КГц - Профессиональный многоголосый / Русский
Аудио 2: AC-3, 640 Кбит/сек, 6 канала(ов), 48,0 КГц - Оригинал / Английский

сэмпл
MediaInfo ▼
Format : Matroska
Format version : Version 2
File size : 7.72 GiB
Duration : 1h 51mn
Overall bit rate : 9 924 Kbps
Movie name : Бэндслэм.(2009).BDRip.1080p.[envy]
Encoded date : UTC 2013-11-28 11:36:14
Writing application : mkvmerge v5.8.0 (No Sleep / Pillow) built on Sep 2 2012 15:37:04
Writing library : libebml v1.2.3 + libmatroska v1.3.0

Video
ID : 1
Format : AVC
Format/Info : Advanced Video Codec
Format profile : [email protected]
Format settings, CABAC : Yes
Format settings, ReFrames : 5 frames
Codec ID : V_MPEG4/ISO/AVC
Duration : 1h 51mn
Bit rate : 8 885 Kbps
Width : 1 920 pixels
Height : 816 pixels
Display aspect ratio : 2.35:1
Frame rate mode : Constant
Frame rate : 23.976 fps
Color space : YUV
Chroma subsampling : 4:2:0
Bit depth : 8 bits
Scan type : Progressive
Bits/(Pixel*Frame) : 0.237
Stream size : 6.72 GiB (87%)
Title : Бэндслэм.(2009).BDRip.1080p.[envy]
Writing library : x264 core 140 r2377 1ca7bb9
Encoding settings : cabac=1 / ref=5 / deblock=1:-3:-3 / analyse=0x3:0x133 / me=umh / subme=11 / psy=1 / psy_rd=1.00:0.00 / mixed_ref=1 / me_range=32 / chroma_me=1 / trellis=2 / 8x8dct=1 / cqm=0 / deadzone=21,11 / fast_pskip=0 / chroma_qp_offset=-2 / threads=12 / lookahead_threads=2 / sliced_threads=0 / nr=0 / decimate=1 / interlaced=0 / bluray_compat=0 / constrained_intra=0 / bframes=7 / b_pyramid=2 / b_adapt=2 / b_bias=0 / direct=3 / weightb=1 / open_gop=0 / weightp=2 / keyint=240 / keyint_min=23 / scenecut=40 / intra_refresh=0 / rc=2pass / mbtree=0 / bitrate=8885 / ratetol=2.0 / qcomp=0.60 / qpmin=0 / qpmax=69 / qpstep=4 / cplxblur=20.0 / qblur=0.5 / ip_ratio=1.40 / pb_ratio=1.30 / aq=1:0.60
Language : English
Default : Yes
Forced : No

Audio #1
ID : 2
Format : AC-3
Format/Info : Audio Coding 3
Mode extension : CM (complete main)
Format settings, Endianness : Big
Codec ID : A_AC3
Duration : 1h 51mn
Bit rate mode : Constant
Bit rate : 448 Kbps
Channel count : 6 channels
Channel positions : Front: L C R, Side: L R, LFE
Sampling rate : 48.0 KHz
Bit depth : 16 bits
Compression mode : Lossy
Stream size : 357 MiB (5%)
Title : rus
Language : Russian
Default : Yes
Forced : No

Audio #2
ID : 3
Format : AC-3
Format/Info : Audio Coding 3
Mode extension : CM (complete main)
Format settings, Endianness : Big
Codec ID : A_AC3
Duration : 1h 51mn
Bit rate mode : Constant
Bit rate : 640 Kbps
Channel count : 6 channels
Channel positions : Front: L C R, Side: L R, LFE
Sampling rate : 48.0 KHz
B
aea427070afc6a84d8f6398a26e4bdb3a575d836Бэндслэм / Bandslam (Тодд Графф,Комедия, Мелодрама, 2009) [BDRip 1080p, Профессиональный (многоголосый, закадровый) + Оригинал (Английский) + Субтитры] Бэндслэм / Bandslam (Тодд Графф,Комедия, Мелодрама, 2009) [BDRip 1080p, Профессиональный (многоголосый, закадровый) + Оригинал (Английский) + Субтитры] " />

Аплоадер: Админ, дата: 28-11-2013, 22:55, торрент скачан: 359 раз

Понравилась раздача? Посмотрите эти:
  • За кадром... / In a World...(Лэйк Белл, комедия, 2013) [BDRip-AVC, Професси ...
  • Погнали! / Getaway (Кортни Соломон, боевик, криминал, 2013) [BDRip 720p, Пр ...
  • Ананасовый экспресс. Сижу, курю / Pineapple Express [Theatrical Cut] (Дэвид ...
  • Пастырь / Priest (Скотт Чарльз Стюарт, ужасы, фантастика, боевик, триллер, ...
  • Ледяной / The Iceman (Ариэль Вромен, драма, криминал, биография, 2013) [BDR ...
  • Посылка / The Package (Джесси Джонсон, боевик, 2013) [BDRip 720p, Профессио ...
  • Турбо / Turbo (Дэвид Сорен, Мультфильм, комедия, приключения, семейный, спо ...
  • Четвертый вид / The Fourth Kind (Олатунде Осунсанми, ужасы, фантастика, 200 ...
  • 42 / 42 (Брайан Хелгеленд, Драма, биография, спорт, 2013) [BDRip 720p, Проф ...
  • Хроника / Chronicle (Джошуа Транк, фантастика, боевик, триллер, драма, 2012 ...
  • Ночь с Бет Купер / I Love You, Beth Cooper (Крис Коламбус, Комедия, 2009) [ ...
  • Смерть на похоронах / Death at a Funeral (Нил ЛаБут, комедия, 2010) [BDRip ...
  • Запретная любовь / The Edge of Love (Джон Мэйбери, Драма, мелодрама, военны ...
  • Безопасность не гарантируется / Safety Not Guaranteed (Колин Треворроу, фан ...
  • Жизнь Пи / Life Of Pi (Энг Ли, Драма, приключения, 2012) [BDRip 1080p, Проф ...
  • Зубная фея 2 / Tooth Fairy 2 (Алекс Замм, комедия, семейный, 2012) [BDRip 7 ...
  • Один Дома / Home Alone (Крис Коламбус, комедия, приключения, семейный, 1990 ...
  • Супер Майк / Magic Mike (Стивен Содерберг, Драма, комедия, 2012) [BDRip 108 ...
  • Викинги / Outlander (Ховард МакКейн, Фантастика, боевик, приключения, 2008) ...
  • Mylene Farmer / Du Temps [2011, Pop, HDTVRip]
  • Mylene Farmer / Bleu Noir [2011, Pop, HDTVRip]
  • PBS: Природа – Гималаи / PBS: Nature – The Himalayas (Крис Морган, Докумен ...
  • Бэндслэм / Bandslam (Тодд Графф / Todd Graff, комедия, драма, музыка, 2009) ...
  • Бэндслэм / Bandslam (Тодд Графф, Комедия, драма, музыка, 2009) [DVDRip, Про ...
  • Футбольные гладиаторы / Ушедшее время / Awaydays (Пэт Холден, драма, кримин ...
  • Информация
    Посетители, находящиеся в группе Гости, не могут оставлять комментарии к данной публикации.