вход на сайт

Имя пользователя :
Пароль :

Восстановление пароля Регистрация
Ананасовый экспресс. Сижу, курю / Pineapple Express [Theatrical Cut] (Дэвид Гордон Грин, Боевик, комедия, криминал, 2008) [BDRip 1080p, Дубляж + оригинал (Английский) + субтитры]
Рейтинг:
(голосов: 1)



[img]{THEME}/images/logopost.png[/img]



Ананасовый экспресс. Сижу, курю / Pineapple Express
«Put this in your pipe and smoke it»

Год выпуска: 2008
Страна: США
Производство: Columbia Pictures
Жанр: Боевик, комедия, криминал

Режиссёр: Дэвид Гордон Грин
В ролях: Сет Роджен, Джеймс Франко, Дэнни МакБрайд, Кевин Корригэн, Крэйг Робинсон, Гари Коул, Рози Перес, Эд Бегли мл., Нора Данн, Эмбер Хёрд, Артур Напионтек, Клео Кинг, Билл Хадер, Джеймс Ремар, Джонатан Спенсер, Дэна Ли, Бобби Ли, Кен Жонг, Дэвид С. Кук

Перевод: Дубляж + оригинал (Английский)
Субтитры: Русские | Полные (18+), Английские | Полные

Описание: Раздолбай и любитель травки случайно становится свидетелем убийства и, прихватив своего дружка, такого же лузера, как он, пытается свалить из города, спасаясь от Плохих Парней. Дело пахнет керосином, ведь мафия решила заставить приятелей замолчать навсегда.Рип от:

Качество: BDRip 1080p (исходник Blu-ray Disc)
Продолжительность: 01:52:00

Формат: MKV
Чаптеры: Есть
Видео кодек: AVC
Аудио кодек: AC3
Видео: 1920x800, 9020 Кбит/сек, 23,976 кадр/сек, AVC, x264, [email protected], 2.40:1, 0.245 Бит/[Пиксели*Кадры], 2pass
Аудио 1: AC-3, 448 Кбит/сек, 6 канала(ов), 48,0 КГц - Дублированный / Русский
Аудио 2: AC-3, 448 Кбит/сек, 6 канала(ов), 48,0 КГц - Оригинал / Английский

Семпл
MediaInfo ▼
Format : Matroska
Format version : Version 2
File size : 7.75 GiB
Duration : 1h 52mn
Overall bit rate : 9 907 Kbps
Movie name : Ананасовый экспресс: Сижу, курю.(2008).BDRip.1080p.[envy]
Encoded date : UTC 2013-11-26 11:29:34
Writing application : mkvmerge v5.8.0 (No Sleep / Pillow) built on Sep 2 2012 15:37:04
Writing library : libebml v1.2.3 + libmatroska v1.3.0

Video
ID : 1
Format : AVC
Format/Info : Advanced Video Codec
Format profile : [email protected]
Format settings, CABAC : Yes
Format settings, ReFrames : 5 frames
Codec ID : V_MPEG4/ISO/AVC
Duration : 1h 52mn
Bit rate : 9 020 Kbps
Width : 1 920 pixels
Height : 800 pixels
Display aspect ratio : 2.40:1
Frame rate mode : Constant
Frame rate : 23.976 fps
Color space : YUV
Chroma subsampling : 4:2:0
Bit depth : 8 bits
Scan type : Progressive
Bits/(Pixel*Frame) : 0.245
Stream size : 6.90 GiB (89%)
Title : Ананасовый экспресс: Сижу, курю.(2008).BDRip.1080p.[envy]
Writing library : x264 core 140 r2377 1ca7bb9
Encoding settings : cabac=1 / ref=5 / deblock=1:-3:-3 / analyse=0x3:0x133 / me=umh / subme=11 / psy=1 / psy_rd=1.00:0.00 / mixed_ref=1 / me_range=32 / chroma_me=1 / trellis=2 / 8x8dct=1 / cqm=0 / deadzone=21,11 / fast_pskip=0 / chroma_qp_offset=-2 / threads=12 / lookahead_threads=1 / sliced_threads=0 / nr=0 / decimate=1 / interlaced=0 / bluray_compat=0 / constrained_intra=0 / bframes=6 / b_pyramid=2 / b_adapt=2 / b_bias=0 / direct=3 / weightb=1 / open_gop=0 / weightp=2 / keyint=240 / keyint_min=23 / scenecut=40 / intra_refresh=0 / rc=2pass / mbtree=0 / bitrate=9020 / ratetol=2.0 / qcomp=0.60 / qpmin=0 / qpmax=69 / qpstep=4 / cplxblur=20.0 / qblur=0.5 / ip_ratio=1.40 / pb_ratio=1.30 / aq=1:0.70
Language : English
Default : Yes
Forced : No

Audio #1
ID : 2
Format : AC-3
Format/Info : Audio Coding 3
Mode extension : CM (complete main)
Format settings, Endianness : Big
Codec ID : A_AC3
Duration : 1h 52mn
Bit rate mode : Constant
Bit rate : 448 Kbps
Channel count : 6 channels
Channel positions : Front: L C R, Side: L R, LFE
Sampling rate : 48.0 KHz
Bit depth : 16 bits
Compression mode : Lossy
Stream size : 359 MiB (5%)
Title : rus
Language : Russian
Default : Yes
Forced : No

Audio #2
ID : 3
Format : AC-3
Format/Info : Audio Coding 3
Mode extension : CM (complete main)
Format settings, Endianness : Big
Codec ID : A_AC3
Duration : 1h 52mn
Bit rate mode : Constant
Bit rate : 448 Kbps
Channel count : 6 channels
Channel positions : Front: L C R, Side: L R, LFE
Sampling rate : 48.0 KHz
Bit depth : 16 bits
Compression m
be2431ed79a42c265244acedd28fd8172f063f62Ананасовый экспресс. Сижу, курю / Pineapple Express [Theatrical Cut] (Дэвид Гордон Грин, Боевик, комедия, криминал, 2008) [BDRip 1080p, Дубляж + оригинал (Английский) + субтитры] Ананасовый экспресс. Сижу, курю / Pineapple Express [Theatrical Cut] (Дэвид Гордон Грин, Боевик, комедия, криминал, 2008) [BDRip 1080p, Дубляж + оригинал (Английский) + субтитры] " />

Аплоадер: Админ, дата: 27-11-2013, 10:42, торрент скачан: 359 раз

Понравилась раздача? Посмотрите эти:
  • Два ствола / 2 Guns (Бальтасар Кормакур, боевик, триллер, драма, комедия, к ...
  • Ананасовый экспресс: Сижу, курю / Pineapple Express [EXTENDED] (Дэвид Гордо ...
  • Ананасовый экспресс: Сижу, курю [Расширенная версия] / Pineapple Express [U ...
  • Бэндслэм / Bandslam (Тодд Графф,Комедия, Мелодрама, 2009) [BDRip 1080p, Про ...
  • Пастырь / Priest (Скотт Чарльз Стюарт, ужасы, фантастика, боевик, триллер, ...
  • Ананасовый экспресс: Сижу, курю / Pineapple Express (Дэвид Гордон Грин, бое ...
  • Хроника / Chronicle (Джошуа Транк, фантастика, боевик, триллер, драма, 2012 ...
  • Ананасовый экспресс: Сижу, курю / Pineapple Express [Расширенная версия ...
  • Железный Кулак [Театральная версия] / The Man with the Iron Fists [Theatric ...
  • Напряги Извилины / Get Smart (Питер Сигал, Комедия, боевик, приключения ...
  • Ананасовый экспресс: Сижу, курю / Pineapple Express (Дэвид Гордон Грин, бое ...
  • Ананасовый экспресс (Расширенная версия) / Pineapple Express (Extended Cut) ...
  • Ананасовый экспресс: Сижу, курю [Расширенная версия] / Pineapple Express [U ...
  • Ананасовый экспресс: сижу, курю / Pineapple Express (Дэвид Гордон Грин, ком ...
  • Супер Майк / Magic Mike (Стивен Содерберг, Драма, комедия, 2012) [BDRip 108 ...
  • Mylene Farmer / Du Temps [2011, Pop, HDTVRip]
  • Ананасовый экспресс: Сижу, курю / Pineapple Express (Дэвид Гордон Грин, Три ...
  • Ананасовый экспресс: Сижу, курю / Pineapple Express (Дэвид Гордон Грин, три ...
  • Ананасовый экспресс: Сижу, курю / Pineapple Express (Дэвид Гордон Грин,боев ...
  • Ананасовый экспресс: Сижу, курю / Pineapple Express (Дэвид Гордон Грин, бое ...
  • Информация
    Посетители, находящиеся в группе Гости, не могут оставлять комментарии к данной публикации.