вход на сайт

Имя пользователя :
Пароль :

Восстановление пароля Регистрация
Va-банк / Runner Runner (Брэд Фурман, триллер, драма, криминал, 2013) [BDRemux 1080p, Дублированный, Украинский, Оригинал (Английский), субтитры]
Рейтинг:
(голосов: 1)



[img]{THEME}/images/logopost.png[/img]



Va-банк / Runner Runner
«Игра стоит свеч»

Год выпуска: 2013
Страна: США
Производство: Appian Way, Double Feature Films, New Regency Pictures
Жанр: триллер, драма, криминал

Режиссёр: Брэд Фурман
В ролях: Джастин Тимберлэйк, Бен Аффлек, Джемма Артертон, Энтони Маки, Майкл Эспер, Оливер Купер, Кристиан Джордж, Юл Васкез, Джон Хёрд, Джеймс Молина

Перевод: Дублированный, Украинский, Оригинал (Английский)
Субтитры: Русские, украинские, английские

Описание:Чтобы оплачивать учёбу в колледже, Ричи погружается в мир азартных игр онлайн. Когда удача изменяет ему, он отправляется на Коста-Рику, чтобы помериться силами с настоящим асом игрового бизнеса. Тот видит в Ричи родственную душу и вводит его в свою игру. Но когда степень опасности возрастает, а ставки достигают невероятных высот, Ричи вдруг отчётливо понимает, что его новый босс вот-вот совершит непоправимое, и пытается поменяться с ним ролями.



премьера (мир):18 сентября 2013
премьера (РФ): 26 сентября 2013, «Двадцатый Век Фокс СНГ»

Качество: BDRemux 1080p
Продолжительность: 01:31:31

Формат: MKV
Видео кодек: H.264
Аудио кодек: AC3, DTS, DTS-HD
Видео: 1920x1080 (16:9), 23.976 fps, H.264 ~30 954 kbps avg
Аудио#1: 48 kHz, DTS, 6 ch, ~768 kbps avg Russian
Аудио#2: 48 kHz, AC3, 6 ch, ~640 kbps avg Russian
Аудио#3: 48 kHz, AC3, 6 ch, ~448 kbps avg Ukrainian
Аудио#4: DTS-HD Master Audio3536 kbps 5.1 / 48 kHz / 3536 kbps / 24-bit (DTS Core: 5.1 / 48 kHz / 1509 kbps / 24-bit) English
Media Info ▼Формат : Matroska
Версия формата : Version 2
Размер файла : 25,0 Гбайт
Продолжительность : 1 ч. 31 м.
Режим общего битрейта : Переменный
Общий поток : 39,1 Мбит/сек
Название фильма : --SCHUMAHER--
Дата кодирования : UTC 2014-01-24 02:13:23
Программа кодирования : mkvmerge v6.7.0 (Back to the Ground) 32bit built on Jan 8 2014 15:03:17
Библиотека кодирования : libebml v1.3.0 + libmatroska v1.4.1

Видео
Идентификатор : 1
Формат : AVC
Формат/Информация : Advanced Video Codec
Профиль формата : [email protected]
Параметр CABAC формата : Да
Параметр ReFrames формата : 4 кадра
Идентификатор кодека : V_MPEG4/ISO/AVC
Продолжительность : 1 ч. 31 м.
Вид битрейта : Переменный
Максимальный битрейт : 36,0 Мбит/сек
Ширина : 1920 пикселей
Высота : 1080 пикселей
Соотношение сторон : 16:9
Режим частоты кадров : Постоянный
Частота кадров : 23,976 кадра/сек
Цветовое пространство : YUV
Субдискретизация насыщенности : 4:2:0
Битовая глубина : 8 бит
Тип развёртки : Прогрессивная
Язык : English
Default : Да
Forced : Да

Аудио #1
Идентификатор : 3
Формат : DTS
Формат/Информация : Digital Theater Systems
Режим : 16
Параметр Endianness формата : Big
Идентификатор кодека : A_DTS
Продолжительность : 1 ч. 31 м.
Вид битрейта : Постоянный
Битрейт : 768 Кбит/сек
Каналы : 6 каналов
Расположение каналов : Front: L C R, Side: L R, LFE
Частота : 48,0 КГц
Битовая глубина : 24 бит
Метод сжатия : С потерями
Размер потока : 503 Мбайт (2%)
Язык : Russian
Default : Да
Forced : Нет

Аудио #2
Идентификатор : 4
Формат : AC-3
Формат/Информация : Audio Coding 3
Расширение режима : CM (complete main)
Параметр Endianness формата : Big
Идентификатор кодека : A_AC3
Продолжительность : 1 ч. 31 м.
Вид битрейта : Постоянный
Битрейт : 640 Кбит/сек
Каналы : 6 каналов
Расположение каналов : Front: L C R, Side: L R, LFE
Частота : 48,0 КГц
Битовая глубина : 16 бит
Метод сжатия : С потерями
Размер потока : 419 Мбайт (2%)
Язык : Russian
Default : Нет
Forced : Нет

Аудио #3
Идентификатор : 5
Формат : AC-3
Формат/Информация : Audio Coding 3
Расширение режима : CM (complete main)
Параметр Endianness формата : Big
Идентификатор кодека : A_AC3
Продолжительность : 1 ч. 31 м.
Вид битрейта : Постоянный
Битрейт : 448 Кбит/сек
Каналы : 6 каналов
Расположение каналов : Front: L C R, Side: L R, LFE
Частота : 48,0 КГц
Битовая глубина : 16 бит
Метод сжатия : С потерями
Размер потока : 293 Мбайт (1%)
Язык : Ukrainian
Defau
0e08769694cd681694e3162bd2a670d92eacb1e1Va-банк / Runner Runner (Брэд Фурман, триллер, драма, криминал, 2013) [BDRemux 1080p, Дублированный, Украинский, Оригинал (Английский), субтитры] Va-банк / Runner Runner (Брэд Фурман, триллер, драма, криминал, 2013) [BDRemux 1080p, Дублированный, Украинский, Оригинал (Английский), субтитры] " />

Аплоадер: Админ, дата: 24-01-2014, 14:22, торрент скачан: 359 раз

Понравилась раздача? Посмотрите эти:
  • Географ глобус пропил (Александр Велединский, Драма, 2013) [BDRemux 1080p , ...
  • Va-банк / Runner Runner (Брэд Фурман, триллер, драма, криминал, 2013) [BDRi ...
  • Va-банк / Runner Runner (Брэд Фурман, триллер, драма, криминал, 2013) [BDRi ...
  • Va-банк / Runner Runner (Брэд Фурман, триллер, драма, криминал, 2013) [BDRi ...
  • Va-банк / Runner Runner (Брэд Фурман, триллер, драма, криминал, 2013) [HDRi ...
  • Va-банк / Runner Runner (Брэд Фурман, триллер, драма, криминал, 2013) [BDRi ...
  • Va-банк / Runner Runner (Брэд Фурман, триллер, драма, криминал, 2013) [HDRi ...
  • Va-банк / Runner Runner (Брэд Фурман, триллер, драма, криминал, 2013) [Blu- ...
  • Va-банк / Runner Runner (Брэд Фурман, Триллер, драма, криминал, 2013) [BDRi ...
  • Погнали! / Getaway (Кортни Соломон, боевик, криминал, 2013) [BDRip 1080p, П ...
  • Мы - Миллеры [Расширенная версия] / Were the Millers [Extended Cut] (Роусон ...
  • Заклятие / The Conjuring (Джеймс Ван, ужасы, триллер, 2013) [BDRip 1080p, Д ...
  • Копы в юбках / The Heat [UNRATED] (Пол Фиг, комедия, криминал, боевик, дете ...
  • [Трейлер #1] Va-банк / Runner, Runner (Брэд Фурман, Триллер, драма, кримина ...
  • Поймай толстуху, если сможешь [Театральная версия] / Identity Thief [Theatr ...
  • G.I. Joe: Бросок кобры 2 [Театральная версия] / G.I. Joe: Retaliation [Thea ...
  • Эскадрилья "Лафайет" / Flyboys (Тони Билл, Боевик, драма, мелодрама, приклю ...
  • Другой мир: Пробуждение / Underworld: Awakening (Манс Марлинд, Бьёрн Стейн, ...
  • Аноним / Anonymous (Роланд Эммерих / Roland Emmerich, триллер, драма, 2011) ...
  • Диктатор / The Dictator (Ларри Чарльз, Комедия, 2012) [BD-Remux 1080p, Дубл ...
  • Счастливчик / The Lucky One (Скотт Хикс, Драма, мелодрама, 2012) [BD-Remux ...
  • Сид, инструкция по выживанию / Surviving Sid (Гален Т. Чу, Карен Дишер, мул ...
  • Супер Майк / Magic Mike (Стивен Содерберг, Драма, комедия, 2012) [BD-Remux ...
  • Папа-Досвидос [Театральная версия] / Thats My Boy [Theatrical Cut] (Шон Анд ...
  • Эволюция Борна / The Bourne Legacy (Тони Гилрой, боевик, триллер, детектив, ...
  • Информация
    Посетители, находящиеся в группе Гости, не могут оставлять комментарии к данной публикации.