вход на сайт

Имя пользователя :
Пароль :

Восстановление пароля Регистрация
Нежность / La délicatesse (Давид Фонкинос, Стефан Фонкинос, мелодрама, комедия, 2011) [BDRip 720p, Профессиональный (полное дублирование) , Оригинал (Французский), субтитры]
Рейтинг:
(голосов: 1)



[img]{THEME}/images/logopost.png[/img]



Нежность / La délicatesse
«Всё началось со случайного поцелуя»

Год выпуска: 2011
Страна: Франция
Производство: 2.4.7. Films, Canal+ [fr], Panache Productions
Жанр: мелодрама, комедия

Режиссёр: Давид Фонкинос, Стефан Фонкинос
В ролях: Одри Тоту, Франсуа Дамиенс, Бруно Тодескини, Мелани Бернье, Жозефин де Мо, Пио Мармай, Моник Шометт, Марк Китти, Александр Павлофф, Виттория Сконьямильо, Оливье Крувелье, Ариан Аскарид, Кристоф Малавуа, Одри Флеро, Аса Вердин Кэллмен, Надеж Перрье, Себастьян Тьери, Чарли Фуке, Вайолетт Ренард, Филиппина Берлиоз, Гэбриэлль Де Конти, Ролан Мену, Филипп Пети, Эмили Симон, Саша Спилберг, Одри Марней, Барак Обама

Перевод: Профессиональный (полное дублирование) , Оригинал (Французский)
Субтитры: Русские

Описание: В один прекрасный день сказочно обворожительная Натали целует молодого коллегу Маркуса. Без особых на то причин, просто так. И даже не придает этому никакого значения. Но Маркус ошеломлен: случайный поцелуй перевернул его жизнь! Теперь он не может думать ни о ком, кроме Натали. Молодому человеку предстоит завоевать сердце коллеги, которая его почти не замечает…премьера (мир):8 ноября 2011
премьера (РФ):1 марта 2012, «Каравелла DDC»

Качество: BDRip 720p
Продолжительность: 01:49:16

Формат: MKV
Видео кодек: H.264
Аудио кодек: AC3
Видео: 1280x694 (1.85:1), 23.976 fps, H.264 ~9 986 kbps avg, 0.469 bit/pixel
Аудио#1: 48 kHz, AC3, 6 ch, ~640 kbps avg Russian
Аудио#2: 48 kHz, AC3, 6 ch, ~640 kbps avg French

Media Info ▼Format : Matroska
Format version : Version 2
File size : 8.80 GiB
Duration : 1h 49mn
Overall bit rate : 11.5 Mbps
Movie name : La delicatesse (2011) - http://hellywood.ru/
Encoded date : UTC 2014-01-07 11:30:12
Writing application : mkvmerge v6.6.0 (The Edge Of The In Between) built on Dec 1 2013 17:55:00
Writing library : libebml v1.3.0 + libmatroska v1.4.1

Video
ID : 1
Format : AVC
Format/Info : Advanced Video Codec
Format profile : [email protected]
Format settings, CABAC : Yes
Format settings, ReFrames : 9 frames
Codec ID : V_MPEG4/ISO/AVC
Duration : 1h 49mn
Bit rate : 9 986 Kbps
Width : 1 280 pixels
Height : 694 pixels
Display aspect ratio : 1.85:1
Frame rate : 23.976 fps
Color space : YUV
Chroma subsampling : 4:2:0
Bit depth : 8 bits
Scan type : Progressive
Bits/(Pixel*Frame) : 0.469
Stream size : 7.65 GiB (87%)
Title : serokuz74
Writing library : x264 core 140 r2377kMod 1ca7bb9
Encoding settings : cabac=1 / ref=9 / deblock=1:-3:-3 / analyse=0x3:0x133 / me=umh / subme=11 / psy=1 / fade_compensate=0.00 / psy_rd=1.00:0.00 / mixed_ref=1 / me_range=48 / chroma_me=1 / trellis=2 / 8x8dct=1 / cqm=0 / deadzone=21,11 / fast_pskip=1 / chroma_qp_offset=-2 / threads=12 / lookahead_threads=2 / sliced_threads=0 / nr=0 / decimate=1 / interlaced=0 / bluray_compat=0 / constrained_intra=0 / fgo=0 / bframes=12 / b_pyramid=2 / b_adapt=2 / b_bias=0 / direct=1 / weightb=1 / open_gop=0 / weightp=2 / keyint=250 / keyint_min=23 / scenecut=40 / intra_refresh=0 / rc_lookahead=60 / rc=crf / mbtree=0 / crf=17.6000 / qcomp=0.60 / qpmin=0 / qpmax=69 / qpstep=4 / vbv_maxrate=50000 / vbv_bufsize=62500 / crf_max=0.0 / nal_hrd=none / filler=0 / ip_ratio=1.30 / pb_ratio=1.20 / aq=2:0.80
Language : English
Default : Yes
Forced : No
Matrix coefficients : BT.709-5, BT.1361, IEC 61966-2-4 709, SMPTE RP177

Audio #1
ID : 2
Format : AC-3
Format/Info : Audio Coding 3
Mode extension : CM (complete main)
Format settings, Endianness : Big
Codec ID : A_AC3
Duration : 1h 49mn
Bit rate mode : Constant
Bit rate : 640 Kbps
Channel(s) : 6 channels
Channel positions : Front: L C R, Side: L R, LFE
Sampling rate : 48.0 KHz
Bit depth : 16 bits
Compression mode : Lossy
Stream size : 502 MiB (6%)
Title : AC3 5.1 @ 640 kbps - DUB, Blu-ray RUS
Language : Russian
Default : Yes
Forced : No

Audio #2
ID : 3
Format : AC-3
Format/Info : Audio Codi
3cd9124ab9ed1f9732f71d65b7507a29d77e8b78Нежность / La délicatesse (Давид Фонкинос, Стефан Фонкинос, мелодрама, комедия, 2011) [BDRip 720p, Профессиональный (полное дублирование) , Оригинал (Французский), субтитры] Нежность / La délicatesse (Давид Фонкинос, Стефан Фонкинос, мелодрама, комедия, 2011) [BDRip 720p, Профессиональный (полное дублирование) , Оригинал (Французский), субтитры] " />

Аплоадер: Админ, дата: 10-01-2014, 20:55, торрент скачан: 359 раз

Понравилась раздача? Посмотрите эти:
  • Пастырь / Priest (Скотт Чарльз Стюарт, ужасы, фантастика, боевик, триллер, ...
  • Верное дельце / Une pure affaire (Александр Коффре, Боевик, Комедия, Кримин ...
  • Жизнь Пи / Life Of Pi (Энг Ли, Драма, приключения, 2012) [BDRip 720p, Профе ...
  • Жизнь Пи / Life Of Pi (Энг Ли, Драма, приключения, 2012) [BDRip 1080p, Проф ...
  • Зубная фея 2 / Tooth Fairy 2 (Алекс Замм, комедия, семейный, 2012) [BDRip 7 ...
  • Нежность / La délicatesse (Давид Фонкинос, Стефан Фонкинос, мелодрама, коме ...
  • Нежность / La délicatesse (Давид Фонкинос, Стефан Фонкинос, Мелодрама, 2011 ...
  • Проект X: Дорвались / Project X (Нима Нуризаде, комедия, 2012) [BDRip-AVC, ...
  • Черное золото / Black Gold (Жан-Жак Анно, Драма, 2011) [BDRip-AVC, Професси ...
  • Коллекционер 2 / The Collection (Маркус Данстэн, ужасы, боевик, триллер , 2 ...
  • Нежность / La délicatesse (Давид Фонкинос, Стефан Фонкинос, мелодрама, коме ...
  • Мой парень из зоопарка / Zookeeper (Фрэнк Корачи, мелодрама, комедия, семей ...
  • Домашняя работа / The Art of Getting By (Гэвин Вьесен, драма, мелодрама, 20 ...
  • Нежность / La délicatesse (Давид Фонкинос, Стефан Фонкинос, мелодрама, коме ...
  • Значит, война / This Means War (МакДжи, боевик, мелодрама, комедия, 2012) [ ...
  • Девчата (Юрий Чулюкин, мелодрама, комедия, 1961) [BDRip 720p, Не требуется] ...
  • Закон доблести / Act of Valor (Майк МакКой, Скотт Во, боевик, триллер, прик ...
  • Мачо и ботан / 21 Jump Street (Фил Лорд, Крис Миллер, боевик, комедия, 2012 ...
  • Любовь С Препятствиями / Un Bonheur Narrive Jamais Seul (Джеймс Хат, Мелодр ...
  • Chelsea - Season Review 2011-12 / Челси - Обзор Сезона 2011-12 [ Футбол, 20 ...
  • Mylene Farmer / Du Temps [2011, Pop, HDTVRip]
  • Mylene Farmer / Bleu Noir [2011, Pop, HDTVRip]
  • PBS: Природа – Гималаи / PBS: Nature – The Himalayas (Крис Морган, Докумен ...
  • Нежность / La délicatesse (Давид Фонкинос, Стефан Фонкинос, Мелодрама, 2011 ...
  • Нежность / La délicatesse (Давид Фонкинос, Стефан Фонкинос, мелодрама, коме ...
  • Информация
    Посетители, находящиеся в группе Гости, не могут оставлять комментарии к данной публикации.