вход на сайт

Имя пользователя :
Пароль :

Восстановление пароля Регистрация
Девичник в Вегасе / Bridesmaids (Пол Фейг / Paul Feig, комедия, 2011) [BDRip 1080p, Дублированный + Оригинал + Субтитры (rus, eng)]
Рейтинг:
(голосов: 1)



[img]{THEME}/images/logopost.png[/img]



Девичник в Вегасе | Bridesmaids
«Отжиг по полной - мальчики отдыхают!»

Год выпуска: 2011
Страна: США
Производство: Apatow Productions, Relativity Media, Universal Pictures
Жанр: комедия

Режиссёр: Пол Фейг / Paul Feig
В ролях: Кристен Уиг, Майя Рудольф, Роуз Бирн, Венди МакЛендон-Кови, Элли Кемпер, Мелисса МакКарти, Криc О’Дауд, Терри Крюс, Джессика Ст. Клэр

Перевод: Дублированный [лицензия] + Оригинал (английский)
Субтитры: русские [форсированные, UTF-8], английские [полные, UTF-8]

Описание: У Энни в личной жизни полный бардак, и ей совсем не до веселья. Но девушке придется забыть о своих проблемах: ведь вскоре ей предстоит отправиться на девичник к лучшей подруге.

Девочки оторвутся так, как мальчикам и не снилось…Дата премьеры (мир): 28 апреля 2011
Дата премьеры (РФ): 23 июня 2011, «UPI»
Качество: BDRip 1080p
Продолжительность: 02:04:58

Релиз от:
Автор рипа: Killbrain

Формат: MKV
Видео кодек: x264
Аудио кодек: DTS
Видео: 1920x800 (2.40:1); 11,5 Мбит/сек; 23,976 fps; 0.312 bpp
Аудио1: DTS Russian 755 kbps 5.1ch Dub BD CEE
Аудио2: DTS Ehglish 1510 kbps 5.1ch Original BD CEE
MediaInfo ▼TextВидео
Идентификатор : 1
Формат : AVC
Формат/Информация : Advanced Video Codec
Профиль формата : [email protected]
Параметр CABAC формата : Да
Параметр ReFrames формата : 4 кадра
Идентификатор кодека : V_MPEG4/ISO/AVC
Продолжительность : 2 ч. 4 м.
Битрейт : 11,5 Мбит/сек
Ширина : 1920 пикселей
Высота : 800 пикселей
Соотношение сторон : 2,40:1
Частота кадров : 23,976 кадра/сек
Цветовое пространство : YUV
Субдискретизация насыщенности : 4:2:0
Битовая глубина : 8 бит
Тип развёртки : Прогрессивная
Бит/(Пиксели*Кадры) : 0.312
Размер потока : 9,80 Гбайт (82%)
Заголовок : Bridesmaids (2011)
Библиотека кодирования : x264 core 116 r2074 2641b9e
Настройки программы : cabac=1 / ref=4 / deblock=1:-2:-2 / analyse=0x3:0x113 / me=umh / subme=9 / psy=1 / psy_rd=1.00:0.00 / mixed_ref=1 / me_range=32 / chroma_me=1 / trellis=2 / 8x8dct=1 / cqm=0 / deadzone=21,11 / fast_pskip=0 / chroma_qp_offset=-3 / threads=6 / sliced_threads=0 / nr=0 / decimate=0 / interlaced=0 / bluray_compat=0 / constrained_intra=0 / bframes=6 / b_pyramid=2 / b_adapt=2 / b_bias=0 / direct=3 / weightb=1 / open_gop=0 / weightp=2 / keyint=240 / keyint_min=23 / scenecut=80 / intra_refresh=0 / rc_lookahead=24 / rc=2pass / mbtree=1 / bitrate=11500 / ratetol=1.5 / qcomp=0.60 / qpmin=0 / qpmax=69 / qpstep=4 / cplxblur=20.0 / qblur=0.5 / vbv_maxrate=50000 / vbv_bufsize=62500 / nal_hrd=none / ip_ratio=1.40 / aq=1:1.00
Язык : English
Default : Да
Forced : Нет
Коэффициенты матрицы : BT.709-5, BT.1361, IEC 61966-2-4 709, SMPTE RP177
Аудио #1
Идентификатор : 2
Формат : DTS
Формат/Информация : Digital Theater Systems
Идентификатор кодека : A_DTS
Продолжительность : 2 ч. 4 м.
Вид битрейта : Постоянный
Битрейт : 755 Кбит/сек
Каналы : 6 каналов
Расположение каналов : Front: L C R, Side: L R, LFE
Частота : 48,0 КГц
Битовая глубина : 24 бит
Метод сжатия : С потерями
Размер потока : 674 Мбайт (5%)
Заголовок : DTS 5.1 @ 755 kb/s [Russian DUB]
Язык : Russian
Default : Да
Forced : Нет
Аудио #2
Идентификатор : 3
Формат : DTS
Формат/Информация : Digital Theater Systems
Идентификатор кодека : A_DTS
Продолжительность : 2 ч. 4 м.
Вид битрейта : Постоянный
Битрейт : 1510 Кбит/сек
Каналы : 6 каналов
Расположение каналов : Front: L C R, Side: L R, LFE
Частота : 48,0 КГц
Битовая глубина : 24 бит
Метод сжатия : С потерями
Размер потока : 1,32 Гбайт (11%)
Заголовок : DTS 5.1 @ 1510 kb/s [Original]
Язык : English
Default : Нет
Forced : Нет
Текст #1
Идентификатор : 4
Формат : UTF-8
Идентификатор кодека : S_TEXT/UTF8
Идентификатор кодека/Информация : UTF-8 Plain Text
Заголовок : Russian [Forced]
Язык : Russian
Default : Да
Forced : Нет
Текст #2
Идентификатор : 5
Формат : UTF-8
Идентификатор кодека : S_TEXT/UTF8
Идентификатор кодека/Информация : UTF-8 Plain Text
Заголовок : English
Язык : English
Default : Нет
Forced : Нет
Меню
00:00:00.000 : en:00:00:00.0
75a7594e8bda176ecdb046ca6754fa5c457b6d74Девичник в Вегасе / Bridesmaids (Пол Фейг / Paul Feig, комедия, 2011) [BDRip 1080p, Дублированный + Оригинал + Субтитры (rus, eng)] Девичник в Вегасе / Bridesmaids (Пол Фейг / Paul Feig, комедия, 2011) [BDRip 1080p, Дублированный + Оригинал + Субтитры (rus, eng)] " />

Аплоадер: Админ, дата: 30-12-2011, 03:16, торрент скачан: 359 раз

Понравилась раздача? Посмотрите эти:
  • Девичник в Вегасе / Bridesmaids (Пол Файг, Комедия, 2011) [BDRip - AVC, Ду ...
  • Начинающие / Beginners (Майк Миллс / Mike Mills, драма, мелодрама, комедия, ...
  • Начинающие / Beginners (Майк Миллс / Mike Mills, драма, мелодрама, комедия, ...
  • Соломенные псы / Straw Dogs (Род Лури, Триллер, драма, криминал , 2011) [BD ...
  • Девичник в Вегасе / Bridesmaids (Пол Фейг / Paul Feig, комедия, 2011) [BDRi ...
  • Безумные мелодии: Кажется я видел котика / Looney Tunes: I Tawt I Taw а Pud ...
  • Заражение / Contagion (Стивен Содерберг, Фантастика, 2011) [BDRip 1080p, Пр ...
  • Стыд / Shame (Стив МакКуин, драма, 2011) [BDRip 1080p, полное дублирование, ...
  • Резня /Carnage (Роман Полански, драма, комедия, 2011) [BDRip 1080p, Дублиро ...
  • Девичник в Вегасе / Bridesmaids (Пол Фейг / Paul Feig, комедия, 2011) [BDRi ...
  • Павшая империя / Hirokin (Алехо Мо-Сан, фантастика, боевик, драма, приключе ...
  • Пол: Секретный материальчик (театральная версия) / Paul (Theatrical Cut) ( ...
  • Девичник в Вегасе / Bridesmaids (Пол Фейг, комедия, 2011) [HDRip, Дублирова ...
  • Девичник в Вегасе / Bridesmaids (Пол Фейг, Комедия, 2011) [480 x 208] [HDRi ...
  • Девичник в Вегасе / Bridesmaids (Пол Фейг, комедия, 2011) [HDRip, Дублирова ...
  • Секс по дружбе / Friends with Benefits (Уилл Глак, мелодрама, комедия, 2011 ...
  • Девичник в Вегасе / Bridesmaids (Пол Фейг / Paul Feig, комедия, 2011) [BDRi ...
  • Девичник в Вегасе / Bridesmaids (Пол Фейг / Paul Feig, комедия, 2011) [HDRi ...
  • Девичник в Вегасе / Bridesmaids (Пол Фейг / Paul Feig, комедия, 2011) [HDRi ...
  • [iPhone, iPod]Девичник в Вегасе / Bridesmaids (Пол Фейг / Paul Feig) [2011, ...
  • Информация
    Посетители, находящиеся в группе Гости, не могут оставлять комментарии к данной публикации.