вход на сайт

Имя пользователя :
Пароль :

Восстановление пароля Регистрация
Харлей Дэвидсон и ковбой Мальборо / Harley Davidson and The Marlboro Man (Саймон Уинсер, боевик, триллер, драма, криминал, 1991) [HDTVRip 1080i, профессиональный (многоголосый закадровый) + 2*двухголосый (ОРТ, НТВ) + 2*авторский (одноголосый) (Михал
Рейтинг:
(голосов: 1)



[img]{THEME}/images/logopost.png[/img]



Харлей Дэвидсон и ковбой Мальборо / Harley Davidson and The Marlboro Man

Год выпуска: 1991
Страна: США
Производство: Metro-Goldwyn Mayer
Жанр: боевик, драма, криминал

Режиссёр: Саймон Уинсер / Simon Wincer
В ролях: Микки Рурк, Дон Джонсон, Челси Филд, Дэниэл Болдуин, Джанкарло Эспозито, Ванесса Уильямс, Роберт Джинти, Тиа Каррере, Джулиус Харрис, Элой Касадос

Перевод: профессиональный (многоголосый закадровый) + 2*двухголосый (ОРТ, НТВ) + 2*авторский (одноголосый) (Михалев, Гоблин) + оригинал
Субтитры: указать: нет

Описание: Потрепанный жизнью беспечный рокер на своем роскошном «Харлее» приезжает в Лас-Вегас, чтобы навестить старого приятеля Ковбоя Мальборо. Встретившись, парни выясняют, что владелец бара, где они провели лучшие годы своей лихой юности, на грани разорения. Дэвидсон и Мальборо решают помочь старому другу и, недолго думая, организуют налет на инкассаторский фургон.
Cамое главное в этом фильме - не интрига, а тщательно проработанная атмосфера «крутизны».
Хромированные мотоциклы и роскошные автомобили, куртки-косухи и ковбойские шляпы, девушки в завязанных на животе рубашках и злодеи в длинных кожаных пальто... И, конечно, присказки, которые надлежит цедить сквозь зубы при каждом удобном случае.

Качество: HDTVRip 1080i
Продолжительность: 01:34:20

Формат: TS
Видео кодек: x264
Аудио кодек: AС3
Видео: 1920x1080 (16:9), ~10900 kbps avg, 25 fps, 0.21 bit/pixel
Аудио 1: Аудио: Russian: 48 kHz, AC3, ~384.00 kbps avg |профессиональный (многоголосый закадровый)}
Аудио 2: Аудио: Russian: 48 kHz, AC3, ~384.00 kbps avg |одноголосый закадровый (Михалев)|
Аудио 3: Аудио: Russian: 48 kHz, AC3, ~384.00 kbps avg |одноголосый закадровый (Гоблин)|
Аудио 4: Аудио: Russian: 48 kHz, AC3, ~192.00 kbps avg |двухголосый закадровый (ОРТ)|
Аудио 5: Аудио: Russian: 48 kHz, AC3, ~384.00 kbps avg |двухголосый закадровый (НТВ)|
Аудио 6: Аудио: English: 48 kHz, AC3, ~384.00 kbps avg |original|


Mediainfo ▼

General
ID : 1
Complete name : ***Харли Дэвидсон и ковбой Мальборо[HD1080].ts
Format : MPEG-TS
File size : 9.20 GiB
Duration : 1h 34mn
Overall bit rate : 14.0 Mbps
Video
ID : 4113 (0x1011)
Menu ID : 1 (0x1)
Format : AVC
Format/Info : Advanced Video Codec
Format profile : [email protected]
Format settings, CABAC : Yes
Format settings, ReFrames : 4 frames
Duration : 1h 34mn
Bit rate : 10.9 Mbps
Width : 1 920 pixels
Height : 1 080 pixels
Display aspect ratio : 16:9
Frame rate : 25.000 fps
Resolution : 8 bits
Colorimetry : 4:2:0
Scan type : Interlaced
Scan order : Top Field First
Bits/(Pixel*Frame) : 0.210
Stream size : 7.17 GiB (78%)
Color primaries : BT.709-5, BT.1361, IEC 61966-2-4, SMPTE RP177
Transfer characteristics : BT.709-5, BT.1361
Matrix coefficients : BT.709-5, BT.1361, IEC 61966-2-4 709, SMPTE RP177
Audio #1
ID : 4352 (0x1100)
Menu ID : 1 (0x1)
Format : AC-3
Format/Info : Audio Coding 3
Duration : 1h 34mn
Bit rate mode : Constant
Bit rate : 384 Kbps
Channel(s) : 2 channels
Channel positions : L R
Sampling rate : 48.0 KHz
Video delay : 77ms
Stream size : 259 MiB (3%)
Language : Russian
Audio #2
ID : 4353 (0x1101)
Menu ID : 1 (0x1)
Format : AC-3
Format/Info : Audio Coding 3
Duration : 1h 34mn
Bit rate mode : Constant
Bit rate : 384 Kbps
Channel(s) : 2 channels
Channel positions : L R
Sampling rate : 48.0 KHz
Video delay : 77ms
Stream size : 259 MiB (3%)
Language : Russian
Audio #3
ID : 4354 (0x1102)
Menu ID : 1 (0x1)
Format : AC-3
Format/Info : Audio Coding 3
Duration : 1h 34mn
Bit rate mode : Constant
Bit rate : 384 Kbps
Channel(s) : 2 channels
Channel positions : L R
Sampling rate : 48.0 KHz
Video delay : 77ms
Stream size : 259 MiB (3%)
Language : Russian
Audio #4
ID : 4355 (0x1103)
Menu ID : 1 (0x1)
Format : AC-3
Format/Info : Audio Coding 3
Duration : 1h 34mn
Bit rate mode : Constant
Bit rate : 192 Kbps
Channel(s) : 2 channels
Channel positions : L
f7ce6aefa74c5a1e72378ddd06971cb41063d237Харлей Дэвидсон и ковбой Мальборо / Harley Davidson and The Marlboro Man (Саймон Уинсер, боевик, триллер, драма, криминал, 1991) [HDTVRip 1080i, профессиональный (многоголосый закадровый) + 2*двухголосый (ОРТ, НТВ) + 2*авторский (одноголосый) (Михал Харлей Дэвидсон и ковбой Мальборо / Harley Davidson and The Marlboro Man (Саймон Уинсер, боевик, триллер, драма, криминал, 1991) [HDTVRip 1080i, профессиональный (многоголосый закадровый) + 2*двухголосый (ОРТ, НТВ) + 2*авторский (одноголосый) (Михал " />

Аплоадер: Админ, дата: 8-10-2011, 19:22, торрент скачан: 359 раз

Понравилась раздача? Посмотрите эти:
  • Харлей Дэвидсон и Ковбой Мальборо / Harley Davidson and the Marlboro Man (С ...
  • [NG] Превосходство бегемота / The superiority of the hippo (Документальный, ...
  • Васаби / Wasabi (Жерар Кравчик, боевик, триллер, драма, комедия, криминал, ...
  • Водитель / The Driver (Уолтер Хилл, Боевик, триллер, драма, криминал, 1978) ...
  • Харлей Дэвидсон и ковбой Марлборо (Гоблин) / Harley Davidson And The Marlbo ...
  • Цельнометаллическая оболочка / Full Metal Jacket (Стэнли Кубрик, драма, вое ...
  • Вальгалла: Сага о викинге / Valhalla Rising (Николас Виндинг Рёфн, боевик, ...
  • Омела над Манхэттеном / Рождество на Манхэттене / Mistletoe over Manhattan ...
  • Роб Рой / Rob Roy (Майкл Кейтон-Джонс, боевик, драма, мелодрама, 1995) [BDR ...
  • Большой каньон / Grand Canyon (Лоуренс Кэздан, драма, криминал, 1991) [BDRi ...
  • Дым / Smoke (Уэйн Ван, Пол Остер, Драма, Комедия, 1995) [BDRip 1080р, Профе ...
  • Китайский квартал / Chinatown (Роман Полански, Триллер, драма, криминал, де ...
  • Такси 2 / Taxi 2 (Жерар Кравчик, боевик, комедия, криминал, 2000) [BDRip 72 ...
  • Бульвар страха / Rosewood Lane (Виктор Сальва, Ужасы, триллер, 2011) [BD-Re ...
  • Чемпионат Испании 2011-12 / 35-й тур / Барселона - Реал / Футбол HD [Футбол ...
  • Голос // Выпуск 13 / Суперфинал (ТВ-шоу, 29.12.2012) [HDTV |1080i|, Не треб ...
  • Melody Gardot / Mira [2012, Jazz, Acoustic, HDTV 1080i]
  • Harley Davidson/Харлей Дэвидсон/1920х1200/JPEG /80шт
  • Харлей Дэвидсон и ковбой Мальборо / Harley Davidson and the Marlboro Man (С ...
  • Харлей Дэвидсон и ковбой Мальборо / Harley Davidson and the Marlboro Man (С ...
  • Харлей Дэвидсон и ковбой Мальборо / Harley Davidson and the Marlboro Man (С ...
  • Телескоп Хаббл / IMAX - Hubble (Тони Майерс, документальный, 2010) [BDRemux ...
  • Попутчик / The Hitcher (Роберт Хармон, боевик, триллер, криминал, 1986) [DV ...
  • Харлей Дэвидсон и ковбой Мальборо / Harley Davidson and the Marlboro Man (С ...
  • Выжить любой ценой - Сезон 7 / Ultimate Survival - Season 7 (Документальный ...
  • Информация
    Посетители, находящиеся в группе Гости, не могут оставлять комментарии к данной публикации.