вход на сайт

Имя пользователя :
Пароль :

Восстановление пароля Регистрация
Троя / Troy (Вольфганг Петерсен, Боевик, мелодрама, драма, история, 2004) [BD Remux , Дублированный, Оригинал]
Рейтинг:
(голосов: 1)



[img]{THEME}/images/logopost.png[/img]



Троя / Troy

Год выпуска: 2004
Страна: США, Великобритания, Мальта
Производство: Warner Bros.
Жанр: Боевик, мелодрама, драма, история

Режиссёр: Вольфганг Петерсен
В ролях: Брэд Питт, Роуз Бирн, Орландо Блум, Джулиан Гловер, Брайан Кокс, Натан Джонс, Адони Маропис, Джейкоб Смит, Джон Шрэпнел, Брендан Глисон, Дайан Крюгер, Эрик Бана

Перевод: Дублированный, Оригинал
Субтитры: нет

Описание: 1193 год до нашей эры. Наследник престола Трои Парис украл прекрасную Елену, жену царя Спарты Менелая. За честь Менелая вступается его брат – царь Агамемнон. Его армия под предводительством Ахиллеса подошла к Трое и взяла город в кровавую осаду, длившуюся долгих десять лет… Два мира будут воевать за честь и власть. Тысячи умрут за славу. И за любовь нация сгорит дотла.


IMDB: 7.00 (160 984)
КиноПоиск: 7.987(47 590)



MediaInfo ▼Общее
Идентификатор : 1 (0x1)
Полное имя : D:DestroyerMoviesHD (720, 1080), BD- Remux, Blu-RayТроя.ts
Формат : MPEG-TS
Размер файла : 16,8 Гбайт
Продолжительность : 2 ч. 42 м.
Общий поток : 14,8 Мбит/сек
Максимальный общий битрейт : 35,5 Мбит/сек

Видео
Идентификатор : 4113 (0x1011)
Идентификатор меню : 1 (0x1)
Формат : VC-1
Профиль формата : [email protected]
Идентификатор кодека : 234
Продолжительность : 2 ч. 42 м.
Битрейт : 13,0 Мбит/сек
Ширина : 1920 пикс.
Высота : 1080 пикс.
Соотношение сторон : 16:9
Частота кадров : 23,976 кадр/сек
Подвыборка цветности : 4:2:0
Битовая глубина : 8 бит
Тип развёртки : Прогрессивная
Порядок развёртки : Нижнее поле первое
Метод сжатия : С потерями
Бит/(Пиксели*Кадры) : 0.262
Размер потока : 14,8 Гбайт (88%)

Аудио #1
Идентификатор : 4352 (0x1100)
Идентификатор меню : 1 (0x1)
Формат : AC-3
Формат/Информация : Audio Coding 3
Расширение режима : CM (complete main)
Идентификатор кодека : 129
Продолжительность : 2 ч. 42 м.
Вид битрейта : Постоянный
Битрейт : 384 Кбит/сек
Каналы : 6 каналов
Расположение каналов : Front: L C R, Side: L R, LFE
Частота : 48,0 КГц
Битовая глубина : 16 бит
Метод сжатия : С потерями
Размер потока : 447 Мбайт (3%)
Язык : Russian

Аудио #2
Идентификатор : 4353 (0x1101)
Идентификатор меню : 1 (0x1)
Формат : AC-3
Формат/Информация : Audio Coding 3
Расширение режима : CM (complete main)
Идентификатор кодека : 129
Продолжительность : 2 ч. 42 м.
Вид битрейта : Постоянный
Битрейт : 640 Кбит/сек
Каналы : 6 каналов
Расположение каналов : Front: L C R, Side: L R, LFE
Частота : 48,0 КГц
Битовая глубина : 16 бит
Метод сжатия : С потерями
Размер потока : 745 Мбайт (4%)
Язык : English



Качество: BD Remux
Продолжительность: 02:42:47

Формат: MPEG-TS
Видео кодек: VC-1
Аудио кодек: AC-3
Видео: 1920x1080 (16:9), 23.976 fps,13,0 Мбит/сек, 0,262 bit/pix
Аудио: язык: Русский, перевод: дублированный (дубляж), кодек: AC3 5.1, битрейт: 384 кб/с
Аудио: язык: Английский, перевод: оригинал, кодек: AC3 5.1, битрейт: 640 кб/с




750247a284ed17afbdd03d8a78d2d0c2f9f0a85eТроя / Troy (Вольфганг Петерсен, Боевик, мелодрама, драма, история, 2004) [BD Remux , Дублированный, Оригинал] Троя / Troy (Вольфганг Петерсен, Боевик, мелодрама, драма, история, 2004) [BD Remux , Дублированный, Оригинал] " />

Аплоадер: Админ, дата: 3-10-2011, 17:02, торрент скачан: 359 раз

Понравилась раздача? Посмотрите эти:
  • Копы в юбках / The Heat [UNRATED] (Пол Фиг, комедия, криминал, боевик, дете ...
  • Троя / Troy [Theatrical Cut] (Вольфганг Петерсен, боевик, драма, история, 2 ...
  • G.I. Joe: Бросок кобры 2 [Театральная версия] / G.I. Joe: Retaliation [Thea ...
  • Линкольн / Lincoln (Стивен Спилберг, драма, военный, биография, история, 20 ...
  • Эскадрилья "Лафайет" / Flyboys (Тони Билл, Боевик, драма, мелодрама, приклю ...
  • Троя (Режиссёрская версия) / Troy (Directors Cut) (Вольфганг Петерсен) [200 ...
  • Троя (Режиссёрская версия) / Troy (Directors Cut) (Вольфганг Петерсен,боеви ...
  • Троя [Режиссёрская версия] / Troy [Directors Cut] (Вольфганг Петерсен, исто ...
  • Троя (Режиссёрская версия) / Troy (Directors Cut) (Вольфганг Петерсен, исто ...
  • Троя / Troy (Вольфганг Петерсен, боевик, драма, мелодрама, история, 2004) [ ...
  • Троя / Troy (Вольфганг Петерсен, боевик, драма, мелодрама, история, 2004) [ ...
  • Троя [Режиссерская версия] / Troy [Directors Сut] (Вольфган Петерсен, прикл ...
  • Троя [Режиссерская версия] / Troy [Directors Сut] (Вольфганг Петерсен, боев ...
  • Троя [Режиссёрская версия] / Troy [Directors Cut] (Вольфганг Петерсен, Боев ...
  • Запрещенный прием / Sucker Punch (Зак Снайдер, Фэнтези, 2011) [BDRemux 108 ...
  • Троя / Troy (Вольфганг Петерсен, боевик, драма, мелодрама, история, 2004) [ ...
  • Другой мир: Пробуждение / Underworld: Awakening (Манс Марлинд, Бьёрн Стейн, ...
  • Транзит / Transit (Антонио Негрет, боевик, триллер, драма, криминал, 2011) ...
  • Диктатор / The Dictator (Ларри Чарльз, Комедия, 2012) [BD-Remux 1080p, Дубл ...
  • Счастливчик / The Lucky One (Скотт Хикс, Драма, мелодрама, 2012) [BD-Remux ...
  • Сид, инструкция по выживанию / Surviving Sid (Гален Т. Чу, Карен Дишер, мул ...
  • Ищу друга на конец света / Seeking a Friend for the End of the World (Лорен ...
  • Супер Майк / Magic Mike (Стивен Содерберг, Драма, комедия, 2012) [BD-Remux ...
  • Троя / Troy (Вольфганг Петерсен, Боевик, Драма, Военный, Исторический, Люб ...
  • Троя / Troy (Вольфганг Петерсен, боевик, исторический, мелодрама, драма, 20 ...
  • Информация
    Посетители, находящиеся в группе Гости, не могут оставлять комментарии к данной публикации.