вход на сайт

Имя пользователя :
Пароль :

Восстановление пароля Регистрация
Город воров / The Town [EXTENDED] (Бен Аффлек / триллер, драма, криминал / 2010) [BDRip 720р, Профессиональное (многоголосое) ["Кубик в кубе" (нецензурная версия)] + Оригинал + SUB]
Рейтинг:
(голосов: 1)



[img]{THEME}/images/logopost.png[/img]



• Город воров / The Town [EXTENDED] •
♥ Год выпуска: 2010
♥ Страна: США
♥ Производство: Warner Bros. Pictures, Legendary Pictures, GK Films
♥ Жанр: триллер, драма, криминал
♥ Режиссёр: Бен Аффлек
♥ В ролях: Бен Аффлек, Ребекка Холл, Джон Хэмм, Джереми Реннер, Блейк Лайвли, Оуэн Бурк, Титус Уэлливер, Пит Постлетуэйт, Крис Купер.
♥ Перевод: Профессиональное (многоголосое) ["Кубик в кубе" (нецензурная версия)] + Оригинал (англоязычная звуковая дорожка)
♥ Субтитры: Русские [forced, full, SDH], Английские [full, SDH]
♥ Описание:
Профессиональный вор Даг влюбляется в Клэр — работницу банка, которая переживает не лучшие времена. Девушка ничего не знает о преступной жизни Дага, зато о ней догадывается детектив, чье расследование может поставить крест на отношениях Дага и Клэр.
♥ Примечание: Расширенная версия длинее театральной на полчаса, включает в себя перемонтированные, расширенные и даже переснятые сцены.


♥ Качество: BDRip 720р
♥ Продолжительность: 02:30:32

♥ Формат: MKV
♥ Видео кодек: AVC
♥ Аудио кодек: AC-3 / DTS / VORBIS
♥ Видео: 1280x534 (2.39:1), 23.976 fps, 4 942 Kbps avg, 0.302 bit/pixel
♥ Аудио#1: AC-3, 48 kHz, 6 ch, 384 kbps avg (RUS)
♥ Аудио#2: DTS, 48 kHz, 6 ch, 1510 kbps avg (ENG)
♥ Аудио#3: VORBIS, 48 kHz, 2 ch, 64 kbps avg (ENG)
MediaInfo ▼TextGeneral
Video
ID : 1
Format : AVC
Format/Info : Advanced Video Codec
Format profile : [email protected]
Format settings, CABAC : Yes
Format settings, ReFrames : 11 frames
Codec ID : V_MPEG4/ISO/AVC
Duration : 2h 30mn
Bit rate : 4 942 Kbps
Width : 1 280 pixels
Height : 534 pixels
Display aspect ratio : 2.35:1
Frame rate : 23.976 fps
Color space : YUV
Chroma subsampling : 4:2:0
Bit depth : 8 bits
Scan type : Progressive
Bits/(Pixel*Frame) : 0.302
Stream size : 5.05 GiB (70%)
Title : The.Town.2010.Extended.720p.BluRay.DTS.x264-HiDt
Writing library : x264 core 110 r1820 fdcf2ae
Encoding settings : cabac=1 / ref=11 / deblock=1:-3:-3 / analyse=0x3:0x113 / me=tesa / subme=10 / psy=1 / psy_rd=1.00:0.00 / mixed_ref=1 / me_range=32 / chroma_me=1 / trellis=2 / 8x8dct=1 / cqm=0 / deadzone=21,11 / fast_pskip=0 / chroma_qp_offset=-2 / threads=12 / sliced_threads=0 / nr=0 / decimate=1 / interlaced=0 / constrained_intra=0 / bframes=6 / b_pyramid=2 / b_adapt=2 / b_bias=0 / direct=3 / weightb=1 / open_gop=0 / weightp=2 / keyint=250 / keyint_min=23 / scenecut=40 / intra_refresh=0 / rc_lookahead=40 / rc=2pass / mbtree=1 / bitrate=4942 / ratetol=1.0 / qcomp=0.60 / qpmin=0 / qpmax=51 / qpstep=4 / cplxblur=20.0 / qblur=0.5 / ip_ratio=1.40 / aq=1:0.85
Language : English

Audio #1
ID : 2
Format : AC-3
Format/Info : Audio Coding 3
Mode extension : CM (complete main)
Codec ID : A_AC3
Duration : 2h 30mn
Bit rate mode : Constant
Bit rate : 384 Kbps
Channel(s) : 6 channels
Channel positions : Front: L C R, Side: L R, LFE
Sampling rate : 48.0 KHz
Bit depth : 16 bits
Compression mode : Lossy
Stream size : 414 MiB (6%)
Title : AC3 5.1 384kbs KvK
Language : Russian

Audio #2
ID : 3
Format : DTS
Format/Info : Digital Theater Systems
Codec ID : A_DTS
Duration : 2h 30mn
Bit rate mode : Constant
Bit rate : 1 510 Kbps
Channel(s) : 6 channels
Channel positions : Front: L C R, Side: L R, LFE
Sampling rate : 48.0 KHz
Bit depth : 16 bits
Compression mode : Lossy
Stream size : 1.59 GiB (22%)
Title : DTS 5.1 1510kbs
Language : English

Audio #3
ID : 4
Format : Vorbis
Format settings, Floor : 1
Codec ID : A_VORBIS
Duration : 2h 30mn
Bit rate mode : Constant
Bit rate : 64.0 Kbps
Channel(s) : 2 channels
Sampling rate : 48.0 KHz
Compression mode : Lossy
Stream size : 68.9 MiB (1%)
Title : Commentary
Writing library : libVorbis 20090709 (UTC 2009-07-09)
Language : English

Text #1
ID : 5
Format : UTF-8
Codec ID : S_TEXT/UTF8
Codec ID/Info : UTF-8 Plain Text
Title : Forced Voronine
Language : Russian

Text #2
ID : 6
Format : UTF-8
Codec ID : S_TEXT/UTF8
Codec ID/Info : UTF-8 Pla
9f612f1bd05e4600ef05851bc53267b6c7279a4eГород воров / The Town [EXTENDED] (Бен Аффлек / триллер, драма, криминал / 2010) [BDRip 720р, Профессиональное (многоголосое) ["Кубик в кубе" (нецензурная версия)] + Оригинал + SUB] Город воров / The Town [EXTENDED] (Бен Аффлек / триллер, драма, криминал / 2010) [BDRip 720р, Профессиональное (многоголосое) ["Кубик в кубе" (нецензурная версия)] + Оригинал + SUB] " />

Аплоадер: Админ, дата: 11-03-2011, 23:28, торрент скачан: 359 раз

Понравилась раздача? Посмотрите эти:
  • Грязь / Filth (Джон С. Бейрд, криминал, драма, комедия, 2013) [BDRip-AVC, ...
  • Погнали! / Getaway (Кортни Соломон, боевик, криминал, 2013) [BDRip 720p, Пр ...
  • 42 / 42 (Брайан Хелгеленд, Драма, биография, спорт, 2013) [BDRip 720p, Проф ...
  • Город воров / The Town (Бен Аффлек, триллер, драма, криминал, 2010) [HDRip, ...
  • Честь дракона / Tom yum goong (Прачья Пинкаю, боевик, триллер, драма, крим ...
  • Цель Номер Один / Zero Dark Thirty (Кэтрин Бигелоу, Триллер, драма, история ...
  • Суррогат / The Sessions (Бен Луин, драма, 2012) [BDRip 720p, Профессиональн ...
  • Зубная фея 2 / Tooth Fairy 2 (Алекс Замм, комедия, семейный, 2012) [BDRip 7 ...
  • Военные Игры / War Games: At The End Of The Day ( Козимо Алема, триллер, у ...
  • Паладин / Dawn Of The Dragonslayer (Энн К. Блэк, фэнтези, боевик, приключе ...
  • Цельнометаллическая оболочка / Full Metal Jacket (Стэнли Кубрик, драма, вое ...
  • Город воров / The Town [Театральная версия / Theatrical Cut] (Бен Аффлек / ...
  • Персонаж / Stranger Than Fiction (Марк Форстер, Комедия, драма, фантастика, ...
  • Бедная богатая девочка / Young Adult (Джейсон Райтман, драма, комедия, 2011 ...
  • Фантомы / Shutter (Масаюки Очиай, ужасы, триллер, детектив, 2008) [BDRip-AV ...
  • Город воров [Театральная версия] / The Town [Theatrical cut] (Бен Аффлек, т ...
  • Исходный код / Source Code (Дункан Джонс, фантастика, боевик, триллер, 2011 ...
  • Бобер / The Beaver (Джоди Фостер, драма, 2011) [BDRip 720p, Дубляж + Оригин ...
  • Чаббчаббы спасают Рождество / The Chubbchubbs Save Xmas (Коуди Камерон, мул ...
  • Профессионал / Killer Elite (Гэри МакКендри, Боевик, Триллер, Криминал, 201 ...
  • Время / In Time (Эндрю Никкол, фантастика, триллер, драма, мелодрама, крими ...
  • Похищенная / A Lonely Place to Die (Джулиан Джилби, триллер, криминал, прик ...
  • Ворон / The Raven (Джеймс МакТиг, Триллер, детектив, 2012) [BDRip 720p, Дуб ...
  • Хижина в лесу / The Cabin in the Woods (Дрю Годдард, Ужасы, фантастика, три ...
  • Mylene Farmer / Du Temps [2011, Pop, HDTVRip]
  • Информация
    Посетители, находящиеся в группе Гости, не могут оставлять комментарии к данной публикации.