вход на сайт

Имя пользователя :
Пароль :

Восстановление пароля Регистрация
Самый большой архив VODов по Dota Allstars от v1lata
Рейтинг:
(голосов: 1)



[img]{THEME}/images/logopost.png[/img]



Год выпуска: 2011
Автор видео: v1lat + Prodota.ru
Продолжительность: 120+ часов
Субтитры: нет
Язык озвучки : русский
Качество: Web-DL, 720p
Комментатор: Виталий v1lat Волочай
Формат:FLV
Описание: Самый большой архив матчей, трансляций и стримов по Доте. Практически все VODы, которые у меня получилось собрать с разных компьютеров и так далее за 2011 год.
40 гигов доты, более 120 часов веселых матчей от Вилата
Все игры Intel Challenge SuperCup 7 и 8 сезонов, очень много матчей с лиги Farm4Fame 3, китайские игры, скайп-шоу, комментарии с разными людьми (3 матча v1lat+pgg) и много-много других игр.



Информация о видео
Format : Flash Video
Overall bit rate : 1 422 Kbps
Writing application : Lavf52.88.0

Video
Format : AVC
Format/Info : Advanced Video Codec
Bit rate : 1 260 Kbps
Width : 1 280 pixels
Height : 720 pixels
Display aspect ratio : 16:9
Frame rate : 1 000.000 fps
Bits/(Pixel*Frame) : 0.001
Stream size : 588 MiB (89%)

Audio
Format : MPEG Audio
Format version : Version 1
Format profile : Layer 3
Mode : Joint stereo
Format_Settings_ModeExtension : MS Stereo
Bit rate mode : Constant
Bit rate : 96.0 Kbps
Channel(s) : 2 channels
Sampling rate : 44.1 KHz
Stream size : 44.8 MiB (7%)



c9dca6d3d9b3e53f0b5402e0ee20d38a1fa5b4d5Самый большой архив VODов по Dota Allstars от v1lata Самый большой архив VODов по Dota Allstars от v1lata " />

Аплоадер: Админ, дата: 19-07-2011, 19:04, торрент скачан: 359 раз

Понравилась раздача? Посмотрите эти:
  • Чемпионат Англии 2013-14 / 18 тур / Обзор матчей четверга / Match of the Da ...
  • Чемпионат Германии 2013-14 / 18-й тур / Обзор Матчей / НТВ+ [Футбол, 27.01. ...
  • Лига Чемпионов 2013-14 / Раунд плей-офф / Обзор матчей за 27.08.2013 / НТВ+ ...
  • Чемпионат Англии 2013-14 / 1-й тур / Обзор Матчей / НТВ+ [20.08.2013, 720p, ...
  • Чемпионат Англии 2013-14 / 1-й тур / Preview / НТВ+ [16.08.2013, 720p, x26 ...
  • Чемпионат Англии 2012-2013 / 38-й тур / Обзор матчей воскресения / Спорт 1 ...
  • Чемпионат Германии 2012-2013 / 32-й тур / Обзор матчей / Футбол + (UA) [06. ...
  • NHL Tonight / Обзор матчей [хоккей, 22.01.2013, HDTVRip |720p|]
  • NHL Tonight / Обзор матчей [хоккей, 20.01.2013, HDTVRip |720p|]
  • NHL Tonight / Обзор матчей [хоккей, 21.01.2013, HDTVRip |720p|]
  • Manami / Yellow Stop [2010, R&B, DVDRip]
  • Quincy Jones & Akon / Strawberry Letter 23 [2010, R&B, HDRip]
  • Чемпионат Италии 2012-13 / 16-й тур / Обзор матчей / НТВ+ [Футбол, 11.12.20 ...
  • Prodigy (of Mobb Deep) / Pretty Thug [2012, Rap, WEBRip]
  • t.A.T.u. / Sparks [2010, Pop, TVRip]
  • Тимати, B.K., DJ M.E.G. / Welcome to St. Tropez. Фан Зона. Новая Волна 2011 ...
  • Machete / Нежность [2011, R&B, HDRip]
  • Лига Европы 2011-12 / 1/2 Финала / Первые Матчи / Обзор Матчей в Студии / Н ...
  • Чемпионат Англии 2011-2012 / Championship / 45-й Тур / Обзор Матчей / НТВ+ ...
  • NBA Finals 2012 / Sportscenter / В преддверии 3-ей игры / Viasat Sport [Бас ...
  • UFC On Fuel - Munoz vs Weidman [MMA, 11.07.2012, HDTVRip, EN]
  • Олимпиада 2012 / Женщины, Мужчины / Плавание / Квалификация / НТВ+ [30.07.2 ...
  • ХХХ Летние Олимпийские Игры / Лёгкая атлетика / День 7 / Финалы и Полуфинал ...
  • Чемпионат Испании 2012-13 | 5-й тур | Обзор матчей | НТВ+ [Футбол, 24.09.20 ...
  • Чемпионат Испании 2012-13 | Liga BBVA | 6-й тур | Обзор матчей | НТВ+ [Футб ...
  • Информация
    Посетители, находящиеся в группе Гости, не могут оставлять комментарии к данной публикации.