вход на сайт

Имя пользователя :
Пароль :

Восстановление пароля Регистрация
Видеодайджест от PlayGround / Выпуск #120 (18.05.2013., WEB-DL HD/720p, AVI/H.264, RU)
Рейтинг:
(голосов: 1)



[img]{THEME}/images/logopost.png[/img]




Видеодайджест от PlayGround

Жанр: Видеодайджест
Год выпуска: 18.05.2013
Язык комментариев: Русский
Издательство: PlayGround.ru
Описание: Из этого выпуска вы узнаете:

• Какой будет Gran Turismo 6? Подробности из официального анонса.
• Electronic Arts готовится к созданию новых игр по «Звездным войнам». На чьи плечи ляжет эта задача?
• Когда выйдет первая портативная консоль от Nvidia?
• Для чего разработчикам Watch_Dogs понадобилась помощь «Лаборатории Касперского»?
• На кого подает в суд Wargaming?
• BioWare хочет заняться созданием спин-оффов, посвященных отдельным персонажам Mass Effect. Что об этом думают наши пользователи?

Кроме того, вы узнаете об уже состоявшихся и грядущих релизах, а также вспомните о главном хите прошедшей 10 лет назад выставки E3 2003.

Приятного просмотра!
Качество: WEB-DL HD
Продолжительность: 00:21:12
Формат: AVI
Видео кодек: H.264
Аудио кодек: MP3
Свойства видео: 1280x720 (1.78:1), 25 fps, H.264/AVC Encoder ~2997 kbps avg, 0.13 bit/pixel
Свойства аудио:44.100 kHz, MPEG Layer 3, 2 ch, ~192.00 kbps avg
Тех. данные ▼
E:Âèäåîäàéäæåñòdigest_120_01.avi
General
Complete name : E:Âèäåîäàéäæåñòdigest_120_01.avi
Format : AVI
Format/Info : Audio Video Interleave
File size : 486 MiB
Duration : 21mn 12s
Overall bit rate mode : Constant
Overall bit rate : 3 202 Kbps
Video #0
ID : 0
Format : AVC
Format/Info : Advanced Video Codec
Format profile : [email protected]
Format settings, CABAC : Yes
Format settings, ReFrames : 1 frame
Format settings, GOP : M=1, N=25
Codec ID : X264
Codec ID/Info : XiWave GNU GPL x264 MPEG-4
Duration : 21mn 12s
Bit rate mode : Constant
Bit rate : 3 000 Kbps
Width : 1 280 pixels
Height : 720 pixels
Display aspect ratio : 16:9
Frame rate : 25.000 fps
Color space : YUV
Chroma subsampling : 4:2:0
Bit depth : 8 bits
Scan type : Progressive
Bits/(Pixel*Frame) : 0.130
Stream size : 455 MiB (94%)
Audio #1
ID : 1
Format : MPEG Audio
Format version : Version 1
Format profile : Layer 3
Codec ID : 55
Codec ID/Hint : MP3
Duration : 21mn 12s
Bit rate mode : Constant
Bit rate : 192 Kbps
Channel(s) : 2 channels
Sampling rate : 44.1 KHz
Compression mode : Lossy
Stream size : 29.1 MiB (6%)
Alignment : Split accross interleaves
Interleave, duration : 26 ms (0.65 video frame)
&nb
04c74501ebb12f57856cdf74c4a2bdfa3e2068e4Видеодайджест от PlayGround / Выпуск #120 (18.05.2013., WEB-DL HD/720p, AVI/H.264, RU) Видеодайджест от PlayGround / Выпуск #120 (18.05.2013., WEB-DL HD/720p, AVI/H.264, RU) " />

Аплоадер: Админ, дата: 18-05-2013, 13:32, торрент скачан: 359 раз

Понравилась раздача? Посмотрите эти:
  • NBA 2013-2014 / RS / Highlights [Баскетбол, 04.11.2013, WEB-DL HD/720p, MP4 ...
  • Чемпионат Англии 2013-14 / 3-й тур / Разогрев / НТВ+ [31.08.2013, 720p, x2 ...
  • Журнал Лиги Чемпионов 2013-14 / НТВ+ [31.08.2013, 720p, x264, RU, HDTVRip]
  • Чемпионат Германии 2013-14 / 4-й тур / Preview / НТВ+ [30.08.2013, 720p, x2 ...
  • Чемпионат Германии 2013-14 / 3-й тур / Preview / НТВ+ [23.08.2013, 720p, x2 ...
  • Чемпионат Италии 2013-14 / 1-й тур / Preview / НТВ+ [23.08.2013, 720p, x264 ...
  • NBA Summer League 2013 / Indiana Pacers @ Boston Celtics [Баскетбол, 09.07. ...
  • NBA Playoffs 2013 / Highlights Playoff Edition [Баскетбол, 05.05.2013, WEB ...
  • NBA Playoffs 2013 / Highlights Playoff Edition [Баскетбол, 06.05.2013, WEB ...
  • NBA Playoffs 2013 / Highlights Playoff Edition [Баскетбол, 07.05.2013, WEB ...
  • NBA Playoffs 2013 / Highlights Playoff Edition [Баскетбол, 08.05.2013, WEB ...
  • NBA Playoffs 2013 / Highlights Playoff Edition [Баскетбол, 10.05.2013, WEB ...
  • NBA Playoffs 2013 / Highlights Playoff Edition [Баскетбол, 11.05.2013, WEB ...
  • Видеодайджест от PlayGround / Выпуск #119 (03.05.2013., WEB-DL HD/720p, AVI ...
  • NHL 12/13 / Stanley Cup Playoffs / East / Semifinals / Game 1 / New York Ra ...
  • Видеообзор Metro Last Light от PlayGround (17.05.2013., WEB-DL HD/720p, MP4 ...
  • WWE Extreme Rules + Preshow [19.05.2013, Рестлинг, WEB-DL-HDTV/720p, MP4-MK ...
  • Machete / Нежность [2011, R&B, HDRip]
  • NBA Finals 2012 / NBA Tonight / Рассуждения на тему предстоящего финала / V ...
  • ХХХ Летние Олимпийские Игры / Лёгкая атлетика / День 7 / Финалы и Полуфинал ...
  • Информация
    Посетители, находящиеся в группе Гости, не могут оставлять комментарии к данной публикации.