вход на сайт

Имя пользователя :
Пароль :

Восстановление пароля Регистрация
Полное прохождение Grand Theft Auto V (GTA 5) [HD / RUS / 2013]
Рейтинг:
(голосов: 1)



[img]{THEME}/images/logopost.png[/img]



Grand Theft Auto V

Информация:

Разработчик: Rockstar Games
Издатель: Rockstar Games
Жанр: Action / 3D / 3st persoon
Платформа: Xbox 360
Дата выхода: 17-го сентября

Описание:
Полное прохождения Grand Theft Auto 5 от RusGameTactics.

Описание файла:
Разрешение: 1920x1080
Продолжительность: 24мин в среднем
Тип: Прохождения
Субтитры: Русские
Язык озвучки: Русский
Формат: MP4 ( Windows Media, VLC Player, KMPlayer)
Размер файла: 1гб серия
Видео кодек: AVC
Аудио кодек: AAC
Видео: 1920x1080, 30 fps, 5 367 Kbps, 8 bit/pixel
Аудио: 44.1 kHz, 2 ch, 192 kbps avg

"MediaInfo" ▼


Format : MPEG-4
Format profile : Base Media / Version 2
Codec ID : mp42
File size : 978 MiB
Duration : 24mn 34s
Overall bit rate mode : Variable
Overall bit rate : 5 562 Kbps
Encoded date : UTC 2013-09-16 14:41:45
Tagged date : UTC 2013-09-16 14:41:45
gsst : 0
gstd : 1474466
gssd : BADC23E81HH1380117273491142
gshh : r2---sn-4g57knle.c.youtube.com
Video #1
ID : 1
Format : AVC
Format/Info : Advanced Video Codec
Format profile : [email protected]
Format settings, CABAC : Yes
Format settings, ReFrames : 1 frame
Format settings, GOP : M=1, N=60
Codec ID : avc1
Codec ID/Info : Advanced Video Coding
Duration : 24mn 34s
Bit rate : 5 367 Kbps
Maximum bit rate : 14.0 Mbps
Width : 1 920 pixels
Height : 1 080 pixels
Display aspect ratio : 16:9
Frame rate mode : Constant
Frame rate : 30.000 fps
Color space : YUV
Chroma subsampling : 4:2:0
Bit depth : 8 bits
Scan type : Progressive
Bits/(Pixel*Frame) : 0.086
Stream size : 943 MiB (97%)
Tagged date : UTC 2013-09-16 14:44:07
Audio #2
ID : 2
Format : AAC
Format/Info : Advanced Audio Codec
Format profile : LC
Codec ID : 40
Duration : 24mn 34s
Bit rate mode : Variable
Bit rate : 192 Kbps
Maximum bit rate : 202 Kbps
Channel(s) : 2 channels
Channel positions : Front: L R
Sampling rate : 44.1 KHz
Compression mode : Lossy
Stream size : 33.7 MiB (3%)
Title : IsoMedia File Produced by Google, 5-11-2011
Encoded date : UTC 2013-09
46a90c56efd7c5c972c2d04ea21eb1f56dd7766dПолное прохождение Grand Theft Auto V (GTA 5) [HD / RUS / 2013] Полное прохождение Grand Theft Auto V (GTA 5) [HD / RUS / 2013] " />

Аплоадер: Админ, дата: 27-09-2013, 15:19, торрент скачан: 359 раз

Понравилась раздача? Посмотрите эти:
  • Инфинити / А он такой [2013, Pop, Master]
  • Инфинити / Нежно [2013, Pop, Master]
  • Quest Pistols / Забудем все [2013, Pop, HDRip]
  • Виа Гра / Перемирие [2013, Pop, HDRip]
  • Горячий Шоколад / Две Недели Рая [2013, Pop, HDRip]
  • Ярослава / Это любовь [2012, Pop, HDRip]
  • NBA 2013-2014 / RS / Highlights [Баскетбол, 04.11.2013, WEB-DL HD/720p, MP4 ...
  • Grand Theft Auto V: The Manual v0.0.1 (2013) (Rus) [Android]
  • Жорабеков Понти / Көзімнен жас тамады сені қимай [2013, Pop, WebRip]
  • Grand Theft Auto V (GTA 5) - Официальный трейлер [HD / RUS / 2013]
  • Grand Theft Auto V - Геймплей №1 (HD / ENG / 2013)
  • Grand Theft Auto V - Геймплей №1 (HD / RUS / 2013)
  • NBA Playoffs 2013 / Highlights Playoff Edition [Баскетбол, 07.05.2013, WEB ...
  • WWE Extreme Rules + Preshow [19.05.2013, Рестлинг, WEB-DL-HDTV/720p, MP4-MK ...
  • Grand Theft Auto V - 3 Трейлера Персонажей (HD / ENG / 2013)
  • Rockstar Games / Скриншоты и Арты GTA 5/ JPEG / 600x400 - 1920x1080 / 133]
  • Grand Theft Auto V (GTA 5) - Первый трейлер [HD / ENG / 2011]
  • Grand Theft Auto V (GTA 5) - Первый трейлер [HD / RUS / 2011]
  • Prodigy (of Mobb Deep) / Pretty Thug [2012, Rap, WEBRip]
  • Русификатор Grand Theft Auto 4 от 1С / Русификатор для GTA 4 от 1C
  • GTA IV Better City Textures / Улучшение текстур GTA IV
  • История Grand Theft Auto: San Andreas
  • Grand Theft Auto V - Дебютный трейлер [HD | 2011 | RUS]
  • Lana Del Rey / Born To Die [2011, Indie Pop, HDRip]
  • Grand Theft Auto V (GTA 5) - Второй трейлер [HD / ENG / 2012]
  • Информация
    Посетители, находящиеся в группе Гости, не могут оставлять комментарии к данной публикации.