вход на сайт

Имя пользователя :
Пароль :

Восстановление пароля Регистрация
Тимати, B.K., DJ M.E.G. / Welcome to St. Tropez. Фан Зона. Новая Волна 2011 [2011, Eurodance, SATRip]
Рейтинг:
(голосов: 1)



[img]{THEME}/images/logopost.png[/img]



Исполнитель: Тимати, B.K., DJ M.E.G.
Оригинальное название: Welcome to St. Tropez. Фан Зона. Новая Волна 2011
Год выпуска: 2011
Жанр: Eurodance

Описание: Живое выступление Тимати, B.K., DJ M.E.G. на концерте Фан Зона Новая Волна в Риге, Латвия.

Качество: SATRip
Продолжительность: 00:05:18

Формат: AVI
Видео: MPEG Video Version 2, 704x576, 4131 (kbps), 25 (fps)
Аудио: 48 (kHz), MPEG Audio Version 1 Layer 2, 2 (ch), 256 (kbps)

Отчет MediaInfo

Format : MPEG-PS
File size : 170 MiB
Duration : 5mn 18s
Overall bit rate : 4 476 Kbps
Video #224
ID : 224 (0xE0)
Format : MPEG Video
Format version : Version 2
Format profile : [email protected]
Format settings, BVOP : Yes
Format settings, Matrix : Default
Duration : 5mn 18s
Bit rate mode : Variable
Bit rate : 4 131 Kbps
Nominal bit rate : 10 000 Kbps
Width : 704 pixels
Height : 576 pixels
Display aspect ratio : 4:3
Frame rate : 25.000 fps
Standard : PAL
Color space : YUV
Chroma subsampling : 4:2:0
Bit depth : 8 bits
Scan type : Interlaced
Scan order : Top Field First
Bits/(Pixel*Frame) : 0.408
Stream size : 157 MiB (92%)
Audio #192
ID : 192 (0xC0)
Format : MPEG Audio
Format version : Version 1
Format profile : Layer 2
Duration : 5mn 18s
Bit rate mode : Constant
Bit rate : 256 Kbps
Channel(s) : 2 channels
Sampling rate : 48.0 KHz
Video delay : -40ms
Stream size : 9.72 MiB (6%)



c833d91104f6767b9a8245970f9f429fca83857aТимати, B.K., DJ M.E.G. / Welcome to St. Tropez. Фан Зона. Новая Волна 2011 [2011, Eurodance, SATRip] Тимати, B.K., DJ M.E.G. / Welcome to St. Tropez. Фан Зона. Новая Волна 2011 [2011, Eurodance, SATRip] " />

Аплоадер: Админ, дата: 22-08-2011, 17:38, торрент скачан: 359 раз

Понравилась раздача? Посмотрите эти:
  • Inna / More Than Friends [2013, Pop, Master]
  • Тимати feat. Григорий Лепс / Лондон [2012, R&B, Master]
  • Тимати feat. LOne и Сергей Мазаев / GQ [2013, Hip-Hop, Rap, Master]
  • Rihanna / What Now [2013, R&B, HDTV]
  • Достучаться До Небес / ГУГЛ [2013, Pop, Master]
  • Ирина Дубцова, Анастасия Кочеткова, Макпал Исабекова, Тимати / Маэстро, Liv ...
  • Rihanna / Diamonds (Victorias Secret) [2012, RnB, HDTV 1080i]
  • Andreea Balan / Trippin [2011, Pop, HDCam]
  • t.A.T.u. / Sparks [2010, Pop, TVRip]
  • [Видеоуроки] Видео уроки по Sony Vegas (2010) [640x480]
  • София Ротару / Выступление в Киеве. 20-летие независимости Украины [24.08.1 ...
  • КВН-2011 / Высшая лига / Финал (ТВ-шоу, Юмор, 30.12.2011) [DVB, Не требуетс ...
  • Чемпионат Испании 2011-12 / 35-й тур / Барселона - Реал М / НТВ+ [Футбол, 2 ...
  • Лига Чемпионов 2001-02 / Финал / Байер (Германия) — Реал (Испания) / НТВ+ [ ...
  • ХХХ Летние Олимпийские Игры / Лёгкая атлетика / День 5 / Утро / Спорт 1 [07 ...
  • ХХХ Летние Олимпийские Игры / Лёгкая атлетика / День 5 / Вечер / Спорт 1 [0 ...
  • ХХХ Летние Олимпийские Игры / Волейбол / Мужчины / Четвертьфинал / Польша – ...
  • ХХХ Летние Олимпийские Игры / Лёгкая атлетика / День 6 / Вечер / Спорт 1 [0 ...
  • ХХХ Летние Олимпийские Игры / Лёгкая атлетика / День 7 / Утро / Спорт 1 [09 ...
  • Namie Amuro / Love Story [2011, JPop, HDTVRip]
  • Информация
    Посетители, находящиеся в группе Гости, не могут оставлять комментарии к данной публикации.