вход на сайт

Имя пользователя :
Пароль :

Восстановление пароля Регистрация
Mr. Credo / Видеография [2012, Рор, DVD5]
Рейтинг:
(голосов: 1)



[img]{THEME}/images/logopost.png[/img]



Исполнитель: Mr. Credo
Год выпуска: 2012
Жанр: Рор

Описание: Артист принципиально избегает общения с журналистами и чрезмерно частого появления на публике, поэтому известно о нём крайне мало. Самый таинственный певец, появляющийся на публике исключительно в темных очках и «арафатке», сделал решительное наступление на шоубизнес. О имени мистер Кредо - скажут хиты «Давай лаве», «Коза Ностра» и, конечно, «Медляк», занимавшие верхние строчки хит-парадов...
- Мне кажется, именно Екатеринбург и предопределил появление танцевальной музыки с восточным колоритом и возникновение имиджа араба. Город находится на границе Европы и Азии, там живут курды, грузины, армяне... Многих людей с Востока я знал лично и в какой-то момент понял, что если просто продолжу петь мелодичную музыку с ориентировкой на западных исполнителей, без денег и фишки мне стену не пробить. Тогда, мне пришло в голову надеть арабскую чалму и совместить евробит с восточной мелодикой. Интерес публики был завоеван в течение года. Я стал собирать стадионы, но меня нигде не было – ни на телевидении, ни на радио. Когда же вышел сингл «HSH-BOLA-BOLA», бабахнуло без всякой рекламы.

MediaInfo:
▼Общее
Формат : MPEG-PS
Размер файла : 1024 Мбайт
Продолжительность : 31 м.
Общий поток : 4561 Кбит/сек

Видео
Идентификатор : 224 (0xE0)
Формат : MPEG Video
Версия формата : Version 2
Профиль формата : [email protected]
Параметр BVOP формата : Да
Параметр матрицы формата : По умолчанию
Продолжительность : 31 м.
Вид битрейта : Переменный
Битрейт : 4247 Кбит/сек
Номинальный битрейт : 9008 Кбит/сек
Ширина : 720 пикс.
Высота : 576 пикс.
Соотношение сторон : 4:3
Частота кадров : 25,000 кадр/сек
Стандарт вещания : PAL
Цветовое пространство : YUV
Подвыборка цветности : 4:2:0
Битовая глубина : 8 бит
Тип развёртки : Прогрессивная
Метод сжатия : С потерями
Бит/(Пиксели*Кадры) : 0.410
Размер потока : 953 Мбайт (93%)

Аудио
Идентификатор : 128 (0x80)
Формат : AC-3
Формат/Информация : Audio Coding 3
Расширение режима : CM (complete main)
Продолжительность : 31 м.
Вид битрейта : Постоянный
Битрейт : 224 Кбит/сек
Канал(ы) : 2 канала(ов)
Расположение каналов : Front: L R
Частота : 48,0 КГц
Битовая глубина : 16 бит
Метод сжатия : С потерями
Размер потока : 50,3 Мбайт (5%)

Меню диска:


Треклист:
▼01 Mr. Credo
02 Воздушный шар
03 Cosa Nostra
04 Клён
05 Мама Азия
06 Медляк
07 Держи Бакшиш
08 Чудная долина
09 Снег
10 Fantasy
11 Hash Bola
12 Медляк (live1)
13 Золотое Время (Mix)
14 Ты моя любовь
15 Плачет Азия
16 Алёнушка
17 Саддам Хуссейн
18 Звезда востока
19 Медляк (Live2)
20 Чечня
21 Девочка ночь


Качество: DVD5
Продолжительность: 01:29:46

Формат: MPEG2
Видео: 720х576 (PAL 4:3), 25 fps, MPEG-2, ~4247 kbps avg, 0.410 bit/pixel
Аудио: 48 kHz, AC-3 , 2 ch, 224.00 kbps avg


e8ace74e1369c28d1f71f4390279e501725b1a8fMr. Credo / Видеография [2012, Рор, DVD5] Mr. Credo / Видеография [2012, Рор, DVD5] " />

Аплоадер: Админ, дата: 19-03-2012, 17:55, торрент скачан: 359 раз

Понравилась раздача? Посмотрите эти:
  • Джанго освобождённый / Django Unchained (Квентин Тарантино, Драма, Вестерн, ...
  • Линкольн / Lincoln (Стивен Спилберг, драма, военный, биография, история, 20 ...
  • Что надо знать о женщине, садясь с ней в машину (документальный, 2013) [WEB ...
  • Ты и я/You and I (Роланд Жоффе, мелодрама, комедия, 2010) [DVD5, Оригинал]
  • Как человек бросал курить (Сергей Андрюшкин, Документальный, 2011) [DVD5, н ...
  • Любовь-морковь 3 (Сергей Гинзбург, Комедия, 2011) [DVD5, Оригинал]
  • Гарри Поттер и Дары смерти: Часть 1 / Harry Potter and the Deathly Hallows: ...
  • Притворись моей женой / Just Go with It (Дэннис Дуган, мелодрама, комедия, ...
  • Балбесы / Olsen Banden pa de bonede gulve (Юрген Лердам , мультфильм, комед ...
  • Человек ниоткуда (Дмитрий Фикс, боевик,триллер, 2010) [DVD R5, Оригинал [ли ...
  • (2011) Mr. Credo / 2011 (Шансон, Pop) [MP3, 320 kbps/CBR]
  • То лето страсти / Un été brûlant (Филипп Гаррель, драма, 2011) [DVD9, Профе ...
  • Игра на выживание / Gone (Эйтор Далия, триллер, драма, 2012) [DVD5, Професс ...
  • Клятва / The Vow (Майкл Сакси, драма, мелодрама, 2012) [DVD5, Профессиональ ...
  • Вирус / Попрошу тебя [2001, Pop, DVD]
  • Краски / Старший брат - 2 [2003, Pop, DVD5]
  • Вирус / Ручки [1999, Pop, TVRip]
  • Акула / Кислотный DJ [2000, Pop, SATRip]
  • (2012) Mr.Credo / Все хиты [2 CD](Поп) [MP3 256-320/CBR,~290/VBR]
  • Ленинград / Последний концерт Ленинграда [2010, Rock, Ska, DVD5]
  • Информация
    Посетители, находящиеся в группе Гости, не могут оставлять комментарии к данной публикации.