вход на сайт

Имя пользователя :
Пароль :

Восстановление пароля Регистрация
Alexandra Stan feat. Carlprit / One Million [2011, Pop, HDCam]
Рейтинг:
(голосов: 1)



[img]{THEME}/images/logopost.png[/img]



Исполнитель: Alexandra Stan feat. Carlprit
Оригинальное название: One Million
Год выпуска: 2011
Жанр: Pop

Описание: Видеоклип румынской певицы Alexandra Stan, записанный совместно с немецким рэппером Carlprit.

Качество: HDCam
Продолжительность: 00:03:19

Формат: MPEG-PS
Видео: MPEG, 1920x1080, 49.1 (Mbps), 25.000 (fps)
Аудио: 48.0 (kHz), mp2, 2 (ch), 224 (kbps)

"Скринлист:" ▼



"Перевод песни:" ▼
[Carlprit]
Да, хаха
Мой первый номер Александра Стан
Правильно
Да, Carlpit, поехали
Да да, ты одна на миллион
И моё сердце любит, ты изумительна
Милая, я скучал по твоей любви и чувствам
Никогда бы не подумал, что будет моей единственной
Когда ты меня покинула, я был так одинок
Я искал ту одну на миллион
Чтобы станцевать с тобой ночью
Думаю, я наконец-то нашел мой миллион

[Alexandra Stan]
[Припев]
Милли милли он
Милли милли он
Милли милли милли он
Милли милли он
Милли милли он
Милли милли милли он
Милли милли он
Милли милли он
Милли милли милли он
Милли милли он
Милли милли он
Милли милли милли он

[Alexandra Stan]
Ведь любовь может сломать тебя
О нет о нет
Всегда когда ты появляешься
О нет миллион миллион
Ведь любовь может сломать тебя
Но я не могу объяснить, как
Да, любвоь может сломить тебя, я точно знаю

[Alexandra Stan]
[Припев]
Милли милли он
Милли милли он
Милли милли милли он
Милли милли он
Милли милли он
Милли милли милли он
Милли милли он
Милли милли он
Милли милли милли он
Милли милли он
Милли милли он
Милли милли милли он
Милли мили он

О нет о нет

О нет о нет

О нет о нет

[Carlprit]
Да да, ты одна на миллион
И моё сердце любит, ты изумительна
Милая, я скучал по твоей любви и чувствам
Никогда бы не подумал, что будет моей единственной
Когда ты меня покинула, я был так одинок
Я искал ту одну на миллион
Чтобы станцевать с тобой ночью
Думаю, я наконец-то нашел мой миллион

[Alexandra Stan]
Как будто я буду одинока, когда ты уйдёшь

[Carlprit]
Для той одной на миллион

[Alexandra Stan & Carlprit]
Танцуй со мной всю ночь
И моё сердце будет чувствовать, что я одна на миллион

[Carlprit]
Одна на миллион (x8)

[Alexandra Stan]
Милли милли он

[Carlprit]
Аха

[Alexandra Stan]
Милли милли он
Милли милли милли он

[Carlprit]
Правильно

[Alexandra Stan]
Милли мили он

[Carlprit]
Да

[Alexandra Stan]
Милли мили он

[Carlprit]
Я номер один

[Alexandra Stan]
Mili mili on

[Carlprit]
Да, Carlprit

[Alexandra Stan]
О нет, о нет

[Carlprit]
Александра Стан

[Alexandra Stan]
О нет
Миллион Миллион


"Mediainfo:" ▼
General
Complete name Alexandra Stan feat. Carlprit - One Million.mpg
Format : MPEG-PS
File size : 1.17 GiB
Duration : 3mn 19s
Overall bit rate : 50.3 Mbps
Video
ID : 224 (0xE0)
Format : MPEG Video
Format version : Version 2
Format profile : [email protected]
Format settings, BVOP : Yes
Format settings, Matrix : Default
Format settings, GOP : M=3, N=15
Duration : 3mn 19s
Bit rate : 49.1 Mbps
Maximum bit rate : 50.0 Mbps
Width : 1 920 pixels
Height : 1 080 pixels
Display aspect ratio : 16:9
Frame rate : 25.000 fps
Color space : YUV
Chroma subsampling : 4:2:0
Bit depth : 8 bits
Scan type : Progressive
Compression mode : Lossy
Bits/(Pixel*Frame) : 0.947
Stream size : 1.14 GiB (98%)
Audio
ID : 192 (0xC0)
Format : MPEG Audio
Format version : Version 1
Format profile : Layer 2
Duration : 3mn 19s
Bit rate mode : Constant
Bit rate : 224 Kbps
Channel(s) : 2 channels
Sampling rate : 48.0 KHz
Compression mode : Lossy
Stream size : 5.33 MiB (0%)




fb196c4621e4e8ef7e5e1758e7acb5c2ed254d23Alexandra Stan feat. Carlprit / One Million [2011, Pop, HDCam] Alexandra Stan feat. Carlprit / One Million [2011, Pop, HDCam] " />

Аплоадер: Админ, дата: 4-01-2013, 13:40, торрент скачан: 359 раз

Понравилась раздача? Посмотрите эти:
  • (2013) Alexandra Stan / Cliche (Hush Hush) (Pop, Dance) [MP3, 320 kbps/ CB ...
  • Alexandra Stan feat. Follow Your Instinct / Baby Its Ok [2013, Dance, WEBRi ...
  • Alexandra Stan vs Manilla Maniacs / All My People [2013, Pop, Dance. WebRi ...
  • Alexandra Stan / Lemonade [2012, Pop, WEBRip]
  • Потому что я так хочу.avi
  • Потому что я так хочу / Because I Said So (Майкл Леманн, комедия, мелодрама ...
  • Отец / Baabul (Рави Чопра, Мелодрама, 2006 г) [DVDRip, Профессиональный (мн ...
  • Пришелец из будущего / Returner(Такэси Ямадзаки, фантастика, 2002) [DVDRip, ...
  • (2012, Сборник) VA / Summer Jum (Club, Dance) [Mp3, 320/CBR]
  • Alexandra Stan feat Carlprit / 1.000.000 [2011, Pop, HDRip]
  • (2012) Stan SB / Anyone Out There (Drum & Bass, Dubstep) [mp3, 320/CBR]
  • Twinss feat. Carlprit / Boys, Boys, Boys [2011, R&B, WEBRip]
  • Alexandra Stan / Mr.Saxobeat (Luis Rondina Remix) [2010, EuroHouse, WebRip] ...
  • Blue Affair & Sasha Dith feat. Carlprit / Я одна (Uncensored Version) [2010 ...
  • Sasha Dith & Blue Affair feat. Carlprit - Я одна [2010, Pop, SATRip]
  • Alexandra Stan / Lollipop [2010, House,WebRip]
  • Потому что я так хочу / Because I Said So (Майкл Леманн, Комедия,Мелодрама, ...
  • Alexandra Stan / Mr Saxobeat [2010,House,WEBRip]
  • Alexandra Stan / Get Back (ASAP) [2011, Dance, HDRip]
  • (2010-2011) Alexandra Stan / 2 сингла (Club House, House, Euro House) [FLAC ...
  • (2011) Alexandra Stan - Saxobeats (Dance, Club, Pop ) [Mp3, 320/CBR]
  • Alexandra Stan / Get Back (Romeyboy Remix) [2011, Dance, WEBRip]
  • Команда Умизуми/ Team Umizoomi //Сезон №2, Эпизоды с № 1-3, 5-6, 8-10, 14-1 ...
  • Alexandra Stan / Lemonade [2012, House, WEBRip]
  • Alexandra Stan / Cliche (Hush Hush) [2012, Pop, WEBRip]
  • Информация
    Посетители, находящиеся в группе Гости, не могут оставлять комментарии к данной публикации.