вход на сайт

Имя пользователя :
Пароль :

Восстановление пароля Регистрация
Tank Feat. T.I. & Kris Stephens / Compliments [2012, RnB,Hip-Hop, HDRip]
Рейтинг:
(голосов: 1)



[img]{THEME}/images/logopost.png[/img]



Исполнитель: Tank Feat. T.I. & Kris Stephens
Оригинальное название: Compliments
Год выпуска: 2012
Жанр: RnB, Hip-Hop

Качество: HDRip
Продолжительность: 00:04:10

Формат: AVI
Видео: XVID, 1280x720 (16:9), 6420 (kbps), 23,976 (fps)
Аудио: PCM, 48 (kHz), 2 (ch), 1536 (kbps)
MI ▼Format : AVI
Format/Info : Audio Video Interleave
File size : 237 MiB
Duration : 4mn 10s
Overall bit rate : 7 961 Kbps
Writing application : MEncoder SVN-r30881(20100311-gcc4.3.3)
Writing library : MPlayer

Video
ID : 0
Format : MPEG-4 Visual
Format profile : Advanced [email protected]
Format settings, BVOP : 2
Format settings, QPel : No
Format settings, GMC : No warppoints
Format settings, Matrix : Default (H.263)
Codec ID : XVID
Codec ID/Hint : XviD
Duration : 4mn 10s
Bit rate : 6 420 Kbps
Width : 1 280 pixels
Height : 720 pixels
Display aspect ratio : 16:9
Frame rate : 23.976 fps
Color space : YUV
Chroma subsampling : 4:2:0
Bit depth : 8 bits
Scan type : Progressive
Compression mode : Lossy
Bits/(Pixel*Frame) : 0.291
Stream size : 191 MiB (81%)
Writing library : XviD 1.2.1 (UTC 2008-12-04)

Audio
ID : 1
Format : PCM
Format settings, Endianness : Little
Format settings, Sign : Signed
Codec ID : 1
Duration : 4mn 10s
Bit rate mode : Constant
Bit rate : 1 536 Kbps
Channel(s) : 2 channels
Sampling rate : 48.0 KHz
Bit depth : 16 bits
Stream size : 45.8 MiB (19%)
Interleave, duration : 499 ms (11.97 video frames)
Interleave, preload duration : 500 ms



a30b9a0b4880f1905054325adb2dc728c1b2bfcbTank Feat. T.I. & Kris Stephens / Compliments [2012, RnB,Hip-Hop, HDRip] Tank Feat. T.I. & Kris Stephens / Compliments [2012, RnB,Hip-Hop, HDRip] " />

Аплоадер: Админ, дата: 31-05-2012, 16:16, торрент скачан: 359 раз

Понравилась раздача? Посмотрите эти:
  • Trey Songz feat. T.I. / 2 Reasons [2012, Hip-Hop, Master]
  • PSY feat. HyunA / Oppa Is Just My Style [2012, KPop, HDRip]
  • Чемпионат Италии 2012-13 / 36-й тур / Рома — Кьево / НТВ+ [07.05.2013, SD, ...
  • T.I. & B.o.B feat. Kendrick Lamar & Kris Stephens / Memories Back Then [201 ...
  • DJ Project Feat. Giulia / Mi-e Dor De Noi [2011, Dance, Pop, HDRip]
  • Скуби-Ду! Маска Синего Сокола / Scooby-Doo! Mask Of The Blue Falcon (Оливье ...
  • Молодежный чемпионат мира 2012 (U-20). Четвертьфинал: Россия - Чехия [02.01 ...
  • Чемпионат Испании 2011-12 / 36-й тур / Реал Мадрид - Севилья / НТВ+ [Футбол ...
  • Чемпионат Европы 2012 / Группа C / 1-й тур / Ирландия — Хорватия / ТРК Футб ...
  • Чемпионат Европы 2012 / Группа D / 1-й тур / Украина - Швеция / Спорт 1 [11 ...
  • Олимпиада 2012 / Мужчины / Группа D / 1-й тур / Испания — Япония / НТВ+ [Фу ...
  • Олимпиада 2012 / Футбол / Мужчины / Группа A / 3-й тур / Великобритания - У ...
  • Mystikal feat. Lil Wayne & Birdman / Original [2012, Rap, Hip-Hop, WEBRip]
  • F.A.N.T.A.S.T / Solaris [2012, Ambient, Dark Ambient, BDRip]
  • Буря в Арктике / Arctic Blast (Брайан Тренчард-Смит, фантастика, триллер, 2 ...
  • Machete / Нежность [2011, R&B, HDRip]
  • Чемпионат Англии 2011-12 / 35 тур / Манчестер Юнайтед - Эвертон / Спорт 1 [ ...
  • Чемпионат Англии 2011-2012 / Championship / 45-й Тур / Обзор Матчей / НТВ+ ...
  • Чемпионат Европы 2012 / Группа B / 1-й тур / Германия - Португалия / Спорт ...
  • NBA Finals 2012 / Sportscenter / В преддверии 3-ей игры / Viasat Sport [Бас ...
  • Супершторм в Сиэтле / Seattle Superstorm (Джейсон Бурк, фантастика, боевик ...
  • Товарищеский матч 2012 / АмаЗулу (ЮАР) - Манчестер Юнайтед (Англия) / MU TV ...
  • Чемпионат России 2012-13 / 1-й тур / Мордовия - Локомотив / НТВ+ [Футбол, 2 ...
  • Олимпиада 2012 / Женщины, Мужчины / Плавание / Квалификация / НТВ+ [30.07.2 ...
  • Товарищеский матч / Звёзды Малайзии - Манчестер Сити / ТК Футбол [Футбол, 2 ...
  • Информация
    Посетители, находящиеся в группе Гости, не могут оставлять комментарии к данной публикации.