вход на сайт

Имя пользователя :
Пароль :

Восстановление пароля Регистрация
Inna / JAdore [2012, Pop, Master]
Рейтинг:
(голосов: 1)



[img]{THEME}/images/logopost.png[/img]



Исполнитель: Inna
Оригинальное название: JAdore
Год выпуска: 2012
Жанр: Pop

Описание: Inna выпустила новое видео к своей новой песне "JAdore". В видео румынская певица занимается фитнесом, отвлекая при этом зрителей от текста песни.

Качество: Master
Продолжительность: 00:03:15

Формат: MOV
Видео:ProRes, 1920х1080, 188 (Mbps), 25 (fps)
Аудио:PCM, 2(ch), 48.0 kHz, 1536 Kbps
MediaInfo ▼
D:КЛИПЫHD КлипыInna - JAdore (Master).mov
General
Complete name : D:КЛИПЫHD КлипыInna - JAdore (Master).mov
Format : MPEG-4
Format profile : QuickTime
Codec ID : qt
File size : 4.32 GiB
Duration : 3mn 15s
Overall bit rate mode : Variable
Overall bit rate : 190 Mbps
Encoded date : UTC 2012-10-29 12:51:28
Tagged date : UTC 2012-10-29 13:08:27
Writing library : Apple QuickTime
©TIM : 00:00:00:00
©TSC : 25
©TSZ : 1
Video #1
ID : 1
Format : ProRes
Format version : Version 0
Format profile : High
Codec ID : apch
Duration : 3mn 15s
Bit rate mode : Variable
Bit rate : 188 Mbps
Width : 1 920 pixels
Height : 1 080 pixels
Display aspect ratio : 16:9
Frame rate mode : Constant
Frame rate : 25.000 fps
Color space : YUV
Chroma subsampling : 4:2:2
Scan type : Progressive
Bits/(Pixel*Frame) : 3.633
Stream size : 4.28 GiB (99%)
Writing library : Apple
Language : English
Encoded date : UTC 2012-10-29 12:51:28
Tagged date : UTC 2012-10-29 13:08:27
Color primaries : BT.709
Transfer characteristics : BT.709
Matrix coefficients : BT.709
Audio #2
ID : 2
Format : PCM
Format settings, Endianness : Little
Format settings, Sign : Signed
Codec ID : sowt
Duration : 3mn 15s
Source duration : 3mn 15s
Bit rate mode : Constant
Bit rate : 1 536 Kbps
Channel(s) : 2 channels
Channel positions : Front: L R
Sampling rate : 48.0 KHz
Bit depth : 16 bits
Stream size : 35.7 MiB (1%)
Source stream size : 35.8 MiB (1%)
Language : English
Encoded date : UTC 2012-10-29 12:51:28
 
bb4323ac34a5f6232a921e2fc20fcc14e86ac138Inna / JAdore [2012, Pop, Master] Inna / JAdore [2012, Pop, Master] " />

Аплоадер: Админ, дата: 30-07-2013, 18:55, торрент скачан: 359 раз

Понравилась раздача? Посмотрите эти:
Информация
Посетители, находящиеся в группе Гости, не могут оставлять комментарии к данной публикации.