вход на сайт

Имя пользователя :
Пароль :

Восстановление пароля Регистрация
Madonna / Girl Gone Wild [2012, Pop, HDTV]
Рейтинг:
(голосов: 1)



[img]{THEME}/images/logopost.png[/img]



Исполнитель: Madonna
Оригинальное название: Girl Gone Wild
Год выпуска: 2012
Жанр: Pop


Качество: HDTV
Продолжительность: 00:03:46

Формат: MPEG-4
Видео: AVC, 1280x720, 15.4 (Mbps), 25.000 (fps)
Аудио: 48 (kHz), AAC, 2 (ch), 275 (kbps)
MI ▼Format : MPEG-4
Format profile : Base Media
Codec ID : isom
File size : 421 MiB
Duration : 3mn 47s
Overall bit rate mode : Variable
Overall bit rate : 15.5 Mbps
Encoded date : UTC 2012-03-21 10:18:52
Tagged date : UTC 2012-03-21 10:18:52
Writing application : Yamb 2.1.0.0 [http://yamb.unite-video.com]

Video
ID : 1
Format : AVC
Format/Info : Advanced Video Codec
Format profile : [email protected]
Format settings, CABAC : Yes
Format settings, ReFrames : 4 frames
Codec ID : avc1
Codec ID/Info : Advanced Video Coding
Duration : 3mn 46s
Bit rate : 15.4 Mbps
Maximum bit rate : 32.9 Mbps
Width : 1 280 pixels
Height : 720 pixels
Display aspect ratio : 16:9
Frame rate mode : Constant
Frame rate : 25.000 fps
Color space : YUV
Chroma subsampling : 4:2:0
Bit depth : 8 bits
Scan type : Progressive
Bits/(Pixel*Frame) : 0.666
Stream size : 415 MiB (98%)
Writing library : x264 core 115 r2008bm 4c552d8
Encoding settings : cabac=1 / ref=3 / deblock=1:0:0 / analyse=0x3:0x113 / me=hex / subme=7 / psy=1 / psy_rd=1.00:0.00 / mixed_ref=1 / me_range=16 / chroma_me=1 / trellis=1 / 8x8dct=1 / cqm=0 / deadzone=21,11 / fast_pskip=1 / chroma_qp_offset=-2 / threads=3 / sliced_threads=0 / nr=0 / decimate=1 / interlaced=0 / bluray_compat=0 / constrained_intra=0 / bframes=3 / b_pyramid=2 / b_adapt=1 / b_bias=0 / direct=1 / weightb=1 / open_gop=0 / weightp=2 / keyint=250 / keyint_min=25 / scenecut=40 / intra_refresh=0 / rc=cqp / mbtree=0 / qp=22 / ip_ratio=1.40 / pb_ratio=1.30 / aq=0
Encoded date : UTC 2012-03-21 10:18:52
Tagged date : UTC 2012-03-21 10:19:04

Audio
ID : 2
Format : AAC
Format/Info : Advanced Audio Codec
Format profile : LC
Codec ID : 40
Duration : 3mn 47s
Bit rate mode : Variable
Bit rate : 232 Kbps
Maximum bit rate : 275 Kbps
Channel(s) : 2 channels
Channel positions : Front: L R
Sampling rate : 44.1 KHz
Compression mode : Lossy
Stream size : 6.31 MiB (1%)
Encoded date : UTC 2012-03-21 10:19:04
Tagged date : UTC 2012-03-21 10:19:04


b20812b3ec055b6cf994d544af487a02e9780557Madonna / Girl Gone Wild [2012, Pop, HDTV] Madonna / Girl Gone Wild [2012, Pop, HDTV] " />

Аплоадер: Админ, дата: 3-06-2012, 03:50, торрент скачан: 359 раз

Понравилась раздача? Посмотрите эти:
  • Dev feat. Enrique Iglesias / Naked [2012, Pop, HDRip]
  • Akon / Get By [2013, Hip-Hop, MasterRip 4K]
  • FLO / NRG [2012, Pop, Dance, MasterRip]
  • Чемпионат Англии 2012-2013 / 33-й тур / Челси - Тоттенхэм / Спорт 1 [Футбол ...
  • Кубок Англии 2012-2013 / Превью финала / Спорт 1 [Футбол, 09.05.2013, 720p, ...
  • UFC The Ultimate 100 Knockouts - PPV [MMA,2013, HDTVRip 720p]
  • Чемпионат Европы 2012 / 1/4 финала / Чехия - Португалия / Спорт 1 HD [Футбо ...
  • Чемпионат Европы 2012 / 1/2 финала / Португалия - Испания / Спорт 1 HD [Фу ...
  • Чемпионат Европы 2012 / 1/2 финала / Германия - Италия / Спорт 1 HD [Футбо ...
  • Все голы Евро-2012 [Футбол,2012, HDTVRip]
  • Формула 1. Сезон 2012. Этап 13 из 20. Гран-При Италии, Квалификация. [2012 ...
  • Mylene Farmer / Du Temps [2011, Pop, HDTVRip]
  • Mylene Farmer / Bleu Noir [2011, Pop, HDTVRip]
  • Суперкубок Испании 2010 / ответный матч+награждение, Барселона – Севилья / ...
  • The Dream Team - NBA TV Documentary [Баскетбол,13.06.2012, HDTVRip/720p, MP ...
  • LeBron James 2012 Finals MVP [Баскетбол, 24.06.2012, HD, 720p, H.264, EN, H ...
  • Top 10 Plays of the 2012 NBA Finals [Баскетбол, 25.06.2012, HD, 720p, H.264 ...
  • Top 10 Dunks of the 2012 NBA Finals [Баскетбол, 25.06.2012, HD, 720p, H.264 ...
  • Чемпионат Европы 2012 / TOP 10 Goals & Best Moments [Футбол, 04.07.2012, HD ...
  • Товарищеский матч / Сборная США - Сборная Доминиканской республики / ESPN [ ...
  • Информация
    Посетители, находящиеся в группе Гости, не могут оставлять комментарии к данной публикации.