вход на сайт

Имя пользователя :
Пароль :

Восстановление пароля Регистрация
Винтаж и Bobina / На, На, На [2012, Pop, HDRip]
Рейтинг:
(голосов: 1)



[img]{THEME}/images/logopost.png[/img]



Исполнитель: Винтаж и Bobina
Оригинальное название: На, На, На
Год выпуска: 2012
Жанр: Pop

Описание: «Винтаж» — российская поп-группа. Состав: певица Анна Плетнёва, певец и композитор Алексей Романов и танцовщица Светлана Иванова. Группа выпустила два издания дебютного альбома «Криминальная любовь», альбом «SEX», восемь радио-синглов, четыре из которых возглавляли Российский радио-чарт. Группа работает практически в том же самом стиле, что и группа Pet Shop Boys и певица Madonna.

Качество: HDRip
Продолжительность: 00:03:54

Формат: WebM
Видео: V_VP8, 1920х1080 pixels (16:9), 5006 Kbps, 1000.000 fps
Аудио: 44.1 KHz, A_VORBIS, 2 channels, 192 Kbps

Media Info ▼General
Complete name: C:UsersLeninDownloadsVideoПРЕМЬЕРА! Винтаж и Bobina - На, На, На.webm
Format: WebM
Format version: Version 2
File size: 151 MiB
Duration: 3mn 54s
Overall bit rate mode: Variable
Overall bit rate: 5 421 Kbps
Writing application: google
Writing library: google

Video
ID: 1
Format: VP8
Codec ID: V_VP8
Duration: 3mn 54s
Bit rate: 5 006 Kbps
Width: 1 920 pixels
Height: 1 080 pixels
Display aspect ratio: 16:9
Frame rate: 1 000.000 fps
Compression mode: Lossy
Bits/(Pixel*Frame): 0.002
Stream size: 140 MiB (92%)
Language: English / English
Default: Yes
Forced: No

Audio
ID: 2
Format: Vorbis
Format settings, Floor: 1
Codec ID: A_VORBIS
Duration: 3mn 54s
Bit rate mode: Variable
Bit rate: 192 Kbps
Channel(s): 2 channels
Sampling rate: 44.1 KHz
Compression mode: Lossy
Stream size: 5.36 MiB (4%)
Language: English
Default: Yes
Forced: No


32ba823af4ab738b6c4ca3c85b952e9ad2534b22Винтаж и Bobina / На, На, На [2012, Pop, HDRip] Винтаж и Bobina / На, На, На [2012, Pop, HDRip] " />

Аплоадер: Админ, дата: 30-05-2012, 19:39, торрент скачан: 359 раз

Понравилась раздача? Посмотрите эти:
  • (2013, Сборник) Винтаж / The Best (Pop) [MP3, 320 / CBR]
  • DJ Smash feat. Винтаж / Три желания [2013, Dance, Pop, Master]
  • Афродита / Валера [2012, Pop, HDRip]
  • Виа Гра / Перемирие [2013, Pop, HDRip]
  • Татьяна Котова / Признание [2012, Pop, HDRip]
  • Ярослава / Это любовь [2012, Pop, HDRip]
  • Герои / Любовь - это химия [2011, Pop, HDRip]
  • PSY feat. HyunA / Oppa Is Just My Style [2012, KPop, HDRip]
  • Inna / JAdore [2012, Pop, Master]
  • Чемпионат Мира по хоккею 2013 / Группа В / Россия - США / Россия 2 [Хоккей, ...
  • (Дискография, 2008-2013) Винтаж (Рор) [FLAC (image+.cue), Lossless]
  • Винтаж feat. DJ Bobina / На-На-На [2012, Pop, BDRip]
  • Voltaj / Lumea E A Mea [2012, Pop, HDRip]
  • Nicki Minaj feat. Lil Wayne / High School [2013, Hip-Hop, Rap, HDRip]
  • (2013) Винтаж / Very Dance (Pop, Dance) [МР3, 320/CBR]
  • Чемпионат Европы 2012 / Группа C / 1-й тур / Ирландия — Хорватия / ТРК Футб ...
  • Чемпионат Европы 2012 / Группа D / 1-й тур / Украина - Швеция / Спорт 1 [11 ...
  • Олимпиада 2012 / Мужчины / Группа D / 1-й тур / Испания — Япония / НТВ+ [Фу ...
  • Олимпиада 2012 / Футбол / Мужчины / Группа A / 3-й тур / Великобритания - У ...
  • (Дискография, 2007-2011) Винтаж (Pop) [mp3, 128-320/CBR]
  • Mick Jagger / SNL [2012, Rock, HDTV 1080i]
  • Tank Feat. T.I. & Kris Stephens / Compliments [2012, RnB,Hip-Hop, HDRip]
  • Machete / Нежность [2011, R&B, HDRip]
  • (2011) Винтаж / Анечка (Pop) [Mp3, 192/CBR]
  • (Дискография, 2007-2011) Винтаж(Pop) [MP3, 320/CBR]
  • Информация
    Посетители, находящиеся в группе Гости, не могут оставлять комментарии к данной публикации.