вход на сайт

Имя пользователя :
Пароль :

Восстановление пароля Регистрация
Lana Del Rey / Born To Die [2011, Indie Pop, HDRip]
Рейтинг:
(голосов: 1)



[img]{THEME}/images/logopost.png[/img]



Исполнитель: Lana Del Rey
Оригинальное название: Born To Die
Год выпуска: 2011
Жанр: Indie Pop, Alternative Rock, Dream Pop

Описание: Открытие последнего времени - Лана Дель Рэй (Lana Del Rey) выпустила клип на свой второй сингл "Born To Die". Альбом певицы вышел в январе.

Качество: HDRip
Продолжительность: 00:04:46

Формат: MP4
Видео: AVC, 1920x1080, 2 421 kbps, 25 000 fps
Аудио: 44.1 (kHz), AAC, 2 channels, 152 kbps

"MediaInfo" ▼D:VideosLana Del Ray - Born To Die.mp4
General
Complete name : D:VideosLana Del Ray - Born To Die.mp4
Format : MPEG-4
Format profile : Base Media / Version 2
Codec ID : mp42
File size : 88.1 MiB
Duration : 4mn 46s
Overall bit rate : 2 576 Kbps
Encoded date : UTC 2011-12-13 18:23:23
Tagged date : UTC 2011-12-13 18:23:23
gsst : 0
gstd : 286881
gssd : BADC21321HH1326208185572170
gshh : v6.nonxt3.c.youtube.com
Video #1
ID : 1
Format : AVC
Format/Info : Advanced Video Codec
Format profile : [email protected]
Format settings, CABAC : Yes
Format settings, ReFrames : 1 frame
Format settings, GOP : M=1, N=25
Codec ID : avc1
Codec ID/Info : Advanced Video Coding
Duration : 4mn 46s
Bit rate : 2 421 Kbps
Maximum bit rate : 4 906 Kbps
Width : 1 920 pixels
Height : 1 080 pixels
Display aspect ratio : 16:9
Frame rate mode : Constant
Frame rate : 25.000 fps
Color space : YUV
Chroma subsampling : 4:2:0
Bit depth : 8 bits
Scan type : Progressive
Bits/(Pixel*Frame) : 0.047
Stream size : 82.8 MiB (94%)
Tagged date : UTC 2011-12-13 18:23:30
Audio #2
ID : 2
Format : AAC
Format/Info : Advanced Audio Codec
Format profile : LC
Codec ID : 40
Duration : 4mn 46s
Bit rate mode : Variable
Bit rate : 152 Kbps
Maximum bit rate : 231 Kbps
Channel(s) : 2 channels
Channel positions : Front: L R
Sampling rate : 44.1 KHz
Compression mode : Lossy
Stream size : 5.20 MiB (6%)
Title : IsoMedia File Produced by Google, 5-11-2011
Encoded date : UTC 2011-12-13 18:23:29
Tagged date : UTC 2011-12-13 18:23:30
0764d00de6c8feafaf8b17a64693a185c6efb882Lana Del Rey / Born To Die [2011, Indie Pop, HDRip] Lana Del Rey / Born To Die [2011, Indie Pop, HDRip] " />

Аплоадер: Админ, дата: 12-02-2012, 17:07, торрент скачан: 359 раз

Понравилась раздача? Посмотрите эти:
  • Eric Saade / Popular [2011, Pop, Master]
  • Quest Pistols / Забудем все [2013, Pop, HDRip]
  • Виа Гра / Перемирие [2013, Pop, HDRip]
  • Victoria Justice / Freak The Freak Out [2011, Pop, Master]
  • Горячий Шоколад / Две Недели Рая [2013, Pop, HDRip]
  • Ярослава / Это любовь [2012, Pop, HDRip]
  • NBA 2013-2014 / RS / Highlights [Баскетбол, 04.11.2013, WEB-DL HD/720p, MP4 ...
  • Герои / Любовь - это химия [2011, Pop, HDRip]
  • Полное прохождение Grand Theft Auto V (GTA 5) [HD / RUS / 2013]
  • WWE Extreme Rules + Preshow [19.05.2013, Рестлинг, WEB-DL-HDTV/720p, MP4-MK ...
  • Evil Not Alone - Кровавая Мэри [2011, Nu metal Rapcore, Alternative metal, ...
  • Assassins Creed: Revelations — Защита логова (HD) на русском [HD | 2011 | R ...
  • Quincy Jones & Akon / Strawberry Letter 23 [2010, R&B, HDRip]
  • Prodigy (of Mobb Deep) / Pretty Thug [2012, Rap, WEBRip]
  • Coldplay / Christmas Lights [2010, Indie Rock,Britpop, HDRip]
  • Owl City feat. Shawn Chrystopher / Alligator Sky [2011, Electronic, HDRip]
  • Лигалайз / О-о!!! А-а!!! [2011, Hip-Hop, WEBRip]
  • Machete / Нежность [2011, R&B, HDRip]
  • Tanir (Da Gudda Jazz) / Шестиколесный Велосипед [2011, Rap, WEBRip]
  • Dinka / White Christmas [2011, Trance, HDRip]
  • (2012) Lana Del Rey / Born To Die (Indie Pop, Alternative Rock) [MP3, 320/C ...
  • (2012) Lana Del Rey / Born To Die (Indie Pop) [FLAC (tracks+.cue), lossless ...
  • LeBron James 2012 Finals MVP [Баскетбол, 24.06.2012, HD, 720p, H.264, EN, H ...
  • Top 10 Plays of the 2012 NBA Finals [Баскетбол, 25.06.2012, HD, 720p, H.264 ...
  • Top 10 Dunks of the 2012 NBA Finals [Баскетбол, 25.06.2012, HD, 720p, H.264 ...
  • Информация
    Посетители, находящиеся в группе Гости, не могут оставлять комментарии к данной публикации.