вход на сайт

Имя пользователя :
Пароль :

Восстановление пароля Регистрация
Owl City feat. Shawn Chrystopher / Alligator Sky [2011, Electronic, HDRip]
Рейтинг:
(голосов: 1)



[img]{THEME}/images/logopost.png[/img]



Исполнитель: Owl City featuring Shawn Chrystopher
Оригинальное название: Alligator Sky
Год выпуска: 2011
Жанр: Electronic

Описание: Американский синтипоп-исполнитель Owl City и рэппер Shawn Chrystopher покидают Землю в клипе на песню Alligator Sky - 1-й сингл с альбома All Things Bright and Beautiful (2011).

Качество: HDRip (1080p)
Продолжительность: 00:03:10

Формат: MP4
Видео: AVC1, 1920x1080, 4 647 (kbps), 23.976 (fps)
Аудио: 44.1 (kHz), AAC, 2 (ch), 152 (kbps)

"Media Info:" ▼
General
Format : MPEG-4
Format profile : Base Media / Version 2
Codec ID : mp42
File size : 109 MiB
Duration : 3mn 10s
Overall bit rate : 4 804 Kbps
Encoded date : UTC 2011-04-29 00:58:10
Tagged date : UTC 2011-04-29 00:58:10
gsst : 0
gstd : 190686
gssd : BADC21322HH1309176375779388
gshh : v17.nonxt3.c.youtube.com
Video #1
ID : 1
Format : AVC
Format/Info : Advanced Video Codec
Format profile : [email protected]
Format settings, CABAC : Yes
Format settings, ReFrames : 1 frame
Codec ID : avc1
Codec ID/Info : Advanced Video Coding
Duration : 3mn 10s
Bit rate mode : Variable
Bit rate : 4 647 Kbps
Maximum bit rate : 13.5 Mbps
Width : 1 920 pixels
Height : 1 080 pixels
Display aspect ratio : 16:9
Frame rate mode : Variable
Frame rate : 23.976 fps
Minimum frame rate : 17.241 fps
Maximum frame rate : 24.390 fps
Resolution : 24 bits
Colorimetry : 4:2:0
Scan type : Progressive
Bits/(Pixel*Frame) : 0.093
Stream size : 106 MiB (97%)
Encoded date : UTC 1970-01-01 00:00:00
Tagged date : UTC 2011-04-29 00:58:11
Audio #2
ID : 2
Format : AAC
Format/Info : Advanced Audio Codec
Format version : Version 4
Format profile : LC
Format settings, SBR : No
Codec ID : 40
Duration : 3mn 10s
Bit rate mode : Variable
Bit rate : 152 Kbps
Maximum bit rate : 232 Kbps
Channel(s) : 2 channels
Channel positions : L R
Sampling rate : 44.1 KHz
Resolution : 16 bits
Stream size : 3.45 MiB (3%)
Title : (C) 2007 Google Inc.
c2239a4677169fbeddc4513582819ff3eaca541aOwl City feat. Shawn Chrystopher / Alligator Sky [2011, Electronic, HDRip] Owl City feat. Shawn Chrystopher / Alligator Sky [2011, Electronic, HDRip] " />

Аплоадер: Админ, дата: 27-06-2011, 18:41, торрент скачан: 359 раз

Понравилась раздача? Посмотрите эти:
Информация
Посетители, находящиеся в группе Гости, не могут оставлять комментарии к данной публикации.