вход на сайт

Имя пользователя :
Пароль :

Восстановление пароля Регистрация
Coldplay / Christmas Lights [2010, Indie Rock,Britpop, HDRip]
Рейтинг:
(голосов: 1)



[img]{THEME}/images/logopost.png[/img]



Coldplay - Christmas Lights

Исполнитель: Coldplay
Оригинальное название: Christmas Lights
Год выпуска: 2010
Жанр: Indie Rock,Britpop

Описание: Новый Новогодний клип от группы ColdPlay

Качество: HDRip [1080p]
Продолжительность: 00:04:30

Формат: MPEG-4
Видео: AVC, 4103 Kbps,1920х1024 (16:9), 25.000 fps
Аудио: AAC, 123 Kbps, 2 channels, 44.1 KHz

"MediaInfo" ▼C:Documents and Settings1Мои документыColdplay - Christmas Lights_(1080p).mp4
General
Complete name : C:Documents and Settings1Мои документыColdplay - Christmas Lights_(1080p).mp4
Format : MPEG-4
Format profile : Base Media / Version 2
Codec ID : mp42
File size : 136 MiB
Duration : 4mn 30s
Overall bit rate : 4 231 Kbps
Encoded date : UTC 2010-11-30 00:44:31
Tagged date : UTC 2010-11-30 00:44:31
gsst : 0
gstd : 270000
gssd : BD49AA8E7HH1292767190618045
gshh : v20.lscache7.c.youtube.com
Video #1
ID : 1
Format : AVC
Format/Info : Advanced Video Codec
Format profile : [email protected]
Format settings, CABAC : Yes
Format settings, ReFrames : 1 frame
Codec ID : avc1
Codec ID/Info : Advanced Video Coding
Duration : 4mn 30s
Bit rate mode : Variable
Bit rate : 4 103 Kbps
Maximum bit rate : 12.4 Mbps
Width : 1 920 pixels
Height : 1 080 pixels
Display aspect ratio : 16:9
Frame rate mode : Constant
Frame rate : 25.000 fps
Color space : YUV
Chroma subsampling : 4:2:0
Bit depth : 8 bits
Scan type : Progressive
Bits/(Pixel*Frame) : 0.079
Stream size : 132 MiB (97%)
Tagged date : UTC 2010-11-30 00:44:39
Audio #2
ID : 2
Format : AAC
Format/Info : Advanced Audio Codec
Format version : Version 4
Format profile : LC
Format settings, SBR : No
Codec ID : 40
Duration : 4mn 29s
Bit rate mode : Variable
Bit rate : 123 Kbps
Maximum bit rate : 203 Kbps
Channel(s) : 2 channels
Channel positions : Front: L R
Sampling rate : 44.1 KHz
Stream size : 3.97 MiB (3%)
Title : (C) 2007 Google Inc. v08.13.2007.
Encoded date : UTC 2010-11-30 00:44:35
 
d4b4d95fd5fea9091ef447ec9b2be69bad975ecfColdplay / Christmas Lights [2010, Indie Rock,Britpop, HDRip] Coldplay / Christmas Lights [2010, Indie Rock,Britpop, HDRip] " />

Аплоадер: Админ, дата: 20-12-2010, 13:43, торрент скачан: 359 раз

Понравилась раздача? Посмотрите эти:
  • (2013, сборник) VA / Rock Media Group Спецвыпуск "Jingle Bell Rock" (Alt. R ...
  • Lumen / На части [2013, Alternative Rock, Hard Rock, Master]
  • Zемфира / Жить в твоей голове [2013, Rock, WEB-Rip]
  • Афродита / Валера [2012, Pop, HDRip]
  • Quest Pistols / Забудем все [2013, Pop, HDRip]
  • Demi Lovato / Neon Lights [2013, Pop, Master]
  • Виа Гра / Перемирие [2013, Pop, HDRip]
  • Горячий Шоколад / Две Недели Рая [2013, Pop, HDRip]
  • Ярослава / Это любовь [2012, Pop, HDRip]
  • Coldplay / Paradise [2011, Indie Rock, Britpop, HDTV 1080i]
  • 3OH!3 / Double Vision [2009, R&B, WEB]
  • Quincy Jones & Akon / Strawberry Letter 23 [2010, R&B, HDRip]
  • (2012, сборник) VA / Rock Media Group Спецвыпуск "Jingle Bell Rock" (Alt. R ...
  • Prodigy (of Mobb Deep) / Pretty Thug [2012, Rap, WEBRip]
  • Train / Shake Up Christmas [2010, Rock, HDRip]
  • Owl City feat. Shawn Chrystopher / Alligator Sky [2011, Electronic, HDRip]
  • Tanir (Da Gudda Jazz) / Шестиколесный Велосипед [2011, Rap, WEBRip]
  • (2011) She & Him / A Very She & Him Christmas (Iindie/Indie-Folk/Indie-Po ...
  • Dinka / White Christmas [2011, Trance, HDRip]
  • Emma Hewitt / Colours [2012, Trance, HDRip]
  • Lana Del Rey / Born To Die [2011, Indie Pop, HDRip]
  • Руставели / Контроль [2010, Rap, HDRip]
  • Би-2 / Девушки (Uncensored Version) [2012, Rock, HDCam 1080p]
  • Сборник упражнений на мускулы тела / Muscle exercises // 84 из 84 [HDTV, от ...
  • Комплекс отжиманий (1-2 levels) / Chest workout "home version" (1-2 levels) ...
  • Информация
    Посетители, находящиеся в группе Гости, не могут оставлять комментарии к данной публикации.