вход на сайт

Имя пользователя :
Пароль :

Восстановление пароля Регистрация
Enrique Iglesias / Concert in Batumi for MTV HD Live Georgia [2011, Pop, HDTVRip]
Рейтинг:
(голосов: 1)



[img]{THEME}/images/logopost.png[/img]



Исполнитель: Enrique Iglesias
Оригинальное название: Concert in Batumi for MTV HD Live Georgia
Год выпуска: 2011
Жанр: Pop

Описание:
Живой концерт короля Поп музыки Энрике Иглесияса в Батуми
Запись сделана (20.12.2011) c Норвежской версии MTV HD, без пережатия. Качество видео, гораздо лучше чем на том же MTV HD от НТВ+.

Треклист:
1. Tonight (Im Lovin You)
2. Dirty Dancer
3. Bailamos
4. Ring My Bells
5. Heartbeat
6. Be With You
7. Tired Of Being Sorry
8. I Like It

Качество: HDTVRip
Продолжительность: 00:42:51

Формат: MKV
Видео: AVC, 1920x1080i, 25 fps, 11.2 Mbps
Аудио: AC-3, 384 Kbps, 2 channels (L,R), 48.0 KHz

"Mediainfo:" ▼
Format : Matroska
File size : 3.55 GiB
Duration : 42mn 51s
Overall bit rate : 11.8 Mbps
Encoded date : UTC 2011-12-20 18:34:27
Writing application : mkvmerge v2.9.7 (Tenderness) built on Jul 1 2009 18:43:35
Writing library : libebml v0.7.7 + libmatroska v0.8.1
Video
ID : 1
Format : AVC
Format/Info : Advanced Video Codec
Format profile : [email protected]
Format settings, CABAC : Yes
Format settings, ReFrames : 4 frames
Muxing mode : Container [email protected]
Codec ID : V_MPEG4/ISO/AVC
Duration : 42mn 51s
Bit rate : 11.2 Mbps
Width : 1 920 pixels
Height : 1 080 pixels
Display aspect ratio : 16/9
Frame rate : 50.000 fps
Original frame rate : 25.000 fps
Resolution : 24 bits
Colorimetry : 4:2:0
Scan type : Interlaced
Scan order : Top Field First
Bits/(Pixel*Frame) : 0.108
Stream size : 3.36 GiB (95%)
Audio
ID : 2
Format : AC-3
Format/Info : Audio Coding 3
Codec ID : A_AC3
Duration : 42mn 51s
Bit rate mode : Constant
Bit rate : 384 Kbps
Channel(s) : 2 channels
Channel positions : L R
Sampling rate : 48.0 KHz
Stream size : 118 MiB (3%)
Language : English




d0d79122f15aa8d9cd42f386af75c216b14c4634Enrique Iglesias / Concert in Batumi for MTV HD Live Georgia [2011, Pop, HDTVRip] Enrique Iglesias / Concert in Batumi for MTV HD Live Georgia [2011, Pop, HDTVRip] " />

Аплоадер: Админ, дата: 12-08-2012, 21:59, торрент скачан: 359 раз

Понравилась раздача? Посмотрите эти:
Информация
Посетители, находящиеся в группе Гости, не могут оставлять комментарии к данной публикации.