вход на сайт

Имя пользователя :
Пароль :

Восстановление пароля Регистрация
The Australian Pink Floyd Show / Live At Hammersmith Apollo 2011 [2012, Rock, BDRip 720p]
Рейтинг:
(голосов: 1)



[img]{THEME}/images/logopost.png[/img]



Исполнитель: The Australian Pink Floyd Show
Оригинальное название: Live At Hammersmith Apollo 2011
Год выпуска: 2012
Жанр: Rock


Треклист:

01 Shine On You Crazy Diamond 1-5
02 Welcome To The Machine
03 Coming Back To Life
04 Arnold Layne
05 Sorrow
06 Learning To Fly
07 Dogs
08 Speak To Me
09 Breathe
10 On The Run
11 Time
12 Breathe (Reprise)
13 The Great Gig In The Sky
14 What Do You Want From Me
15 Careful With That Axe Eugene
16 Money
17 The Happiest Days Of Our Lives
18 Another Brick In The Wall - Part 2
19 Wish You Were Here
20 One Of These Days
21 Comfortably Numb
22 Run Like Hell


Качество: BDRip 720p
Продолжительность: 2:30:58

Формат: MKV
Видео: AVC, 1280:720, 6 024 (kbps), 25.000 (fps)
Аудио: 48 (kHz), DTS, 6 (ch), 1 510 (kbps)
MediaInfo ▼TextFormat : Matroska
Format version : Version 2
File size : 7.95 GiB
Duration : 2h 30mn
Overall bit rate : 7 535 Kbps
Encoded date : UTC 2012-05-01 12:17:06
Writing application : mkvmerge v5.2.1 (A Far Off Place) built on Jan 2 2012 23:21:10
Writing library : libebml v1.2.3 + libmatroska v1.3.0

Video
ID : 1
Format : AVC
Format/Info : Advanced Video Codec
Format profile : [email protected]
Format settings, CABAC : Yes
Format settings, ReFrames : 5 frames
Codec ID : V_MPEG4/ISO/AVC
Duration : 2h 30mn
Bit rate : 6 024 Kbps
Width : 1 280 pixels
Height : 720 pixels
Display aspect ratio : 16:9
Frame rate : 25.000 fps
Color space : YUV
Chroma subsampling : 4:2:0
Bit depth : 8 bits
Scan type : Progressive
Bits/(Pixel*Frame) : 0.261
Stream size : 6.20 GiB (78%)
Writing library : x264 core 124 r2197 69a0443
Encoding settings : cabac=1 / ref=5 / deblock=1:0:0 / analyse=0x3:0x133 / me=umh / subme=7 / psy=1 / psy_rd=1.00:0.00 / mixed_ref=1 / me_range=16 / chroma_me=1 / trellis=1 / 8x8dct=1 / cqm=0 / deadzone=21,11 / fast_pskip=0 / chroma_qp_offset=-2 / threads=12 / sliced_threads=0 / nr=0 / decimate=1 / interlaced=0 / bluray_compat=0 / constrained_intra=0 / bframes=3 / b_pyramid=2 / b_adapt=1 / b_bias=0 / direct=1 / weightb=1 / open_gop=0 / weightp=1 / keyint=250 / keyint_min=25 / scenecut=40 / intra_refresh=0 / rc_lookahead=40 / rc=2pass / mbtree=1 / bitrate=6024 / ratetol=1.0 / qcomp=0.60 / qpmin=0 / qpmax=69 / qpstep=4 / cplxblur=20.0 / qblur=0.5 / ip_ratio=1.40 / aq=1:1.00
Language : English
Default : Yes
Forced : No

Audio
ID : 2
Format : DTS
Format/Info : Digital Theater Systems
Codec ID : A_DTS
Duration : 2h 30mn
Bit rate mode : Constant
Bit rate : 1 510 Kbps
Channel(s) : 6 channels
Channel positions : Front: L C R, Side: L R, LFE
Sampling rate : 48.0 KHz
Bit depth : 24 bits
Compression mode : Lossy
Stream size : 1.59 GiB (20%)
Default : Yes
Forced : No





4f47aec7530ab4a561b9a57f8d90d3d0cbc8705fThe Australian Pink Floyd Show / Live At Hammersmith Apollo 2011 [2012, Rock, BDRip 720p] The Australian Pink Floyd Show / Live At Hammersmith Apollo 2011 [2012, Rock, BDRip 720p] " />

Аплоадер: Админ, дата: 29-05-2012, 20:34, торрент скачан: 359 раз

Понравилась раздача? Посмотрите эти:
  • FLO / NRG [2012, Pop, Dance, MasterRip]
  • Eminem / Rap God [2013, Rap, HDRip]
  • Beyonce / Rock In Rio [2013, R&B, HDTVRip]
  • AC/DC / Live at Donington [1991, Hard Rock, BDRip]
  • Чемпионат Испании 2012-13 / 34-й тур / Обзор Тура / НТВ+ [06.05.2013, 720p, ...
  • UFC The Ultimate 100 Knockouts - PPV [MMA,2013, HDTVRip 720p]
  • UFC - Best Of 2012 Year In Review[MMA,2013, BDRip 540p]
  • (2011) Pink Floyd / A Foot In The Door (Rock) [M4A, ~280/VBR]
  • Пейзажи времени / TimeScapes: The Movie (Том Лоу, документальный, видовой, ...
  • «Весёлые» каникулы / Get the Gringo (Адриан Грюнберг, Боевик, комедия, 2012 ...
  • Ворон / The Raven (Джеймс МакТиг, Триллер, детектив, 2012) [BDRip 720p, Дуб ...
  • Лига Чемпионов 2011-12 / 1/2 финала / Ответный матч / Барселона (Испания) - ...
  • Чемпионат Европы 2012 / 1/4 финала / Чехия - Португалия / Спорт 1 HD [Футбо ...
  • Чемпионат Европы 2012 / 1/2 финала / Португалия - Испания / Спорт 1 HD [Фу ...
  • Чемпионат Европы 2012 / 1/2 финала / Германия - Италия / Спорт 1 HD [Футбо ...
  • Chelsea - Season Review 2011-12 / Челси - Обзор Сезона 2011-12 [ Футбол, 20 ...
  • Формула 1. Сезон 2012. Этап 13 из 20. Гран-При Италии, Квалификация. [2012 ...
  • Rihanna / Live At Rock In Rio [2010, R&B, TVRip]
  • Brit Floyd / The Pink Floyd Tribute Show - Live From Liverpool [2011, Psych ...
  • Mylene Farmer / Du Temps [2011, Pop, HDTVRip]
  • Mylene Farmer / Bleu Noir [2011, Pop, HDTVRip]
  • Emerson Lake & Palmer / 40th Anniversary Reunion Concert (Live)[2011, Progr ...
  • (2012) Pink Floyd / Defacing The Wall (Radio Promo) (Progressive Rock, Psyc ...
  • Madonna / Girl Gone Wild [2012, Pop, HDTV]
  • Английская Премьер-Лига 2012-13 / Тур 15 / Рединг - Манчестер Юнайтед [футб ...
  • Информация
    Посетители, находящиеся в группе Гости, не могут оставлять комментарии к данной публикации.