вход на сайт

Имя пользователя :
Пароль :

Восстановление пароля Регистрация
Mick Jagger / SNL [2012, Rock, HDTV 1080i]
Рейтинг:
(голосов: 1)



[img]{THEME}/images/logopost.png[/img]



Исполнитель: Mick Jagger
Оригинальное название: SNL
Год выпуска: 2012
Жанр: Rock

Описание: Мик Джаггер на Saturday Night Live
NBC Studios
Нью-Йорк, Нью-Йорк
В прямом эфире 19 мая 2012
featuring Arcade Fire, Foo Fighters, Jeff Beck and Tal Wilkenfeld

Треклист: ▼01. (I Cant Get No) Satisfaction - portion of skit
02. The Last Time - with Arcade Fire
03. 19th Nervous Breakdown/Its Only Rock n Roll (But I Like It) - with Foo Fighters
04. "The West Wing Blues"* - with Jeff Beck,Tal Wilkenfeld, Vinnie Colaiuta and others
05. Shes A Rainbow/Ruby Tuesday - with Arcade Fire and SNL house band and cast

Качество: HDTV 1080i
Продолжительность: 00:19:21

Формат: MKV
Видео: MPEG Video, 1 920:1 080, 15.4(Mbps), 59.940 (fps)
Аудио1: 48 (kHz), 6 (ch), 384 (kbps)
Аудио2: 48 (kHz), 2 (ch), 256 (kbps)
MediaInfo ▼TextFormat : Matroska
Format version : Version 2
File size : 2.21 GiB
Duration : 19mn 20s
Overall bit rate mode : Variable
Overall bit rate : 16.3 Mbps
Encoded date : UTC 2012-05-20 15:08:18
Writing application : mkvmerge v5.5.0 (Healer) built on Apr 6 2012 21:43:24
Writing library : libebml v1.2.3 + libmatroska v1.3.0

Video
ID : 1
Format : MPEG Video
Format version : Version 2
Format profile : [email protected]
Format settings, BVOP : No
Format settings, Matrix : Custom
Codec ID : V_MPEG2
Codec ID/Info : MPEG 1 or 2 Video
Duration : 19mn 20s
Bit rate mode : Variable
Bit rate : 15.4 Mbps
Maximum bit rate : 65.0 Mbps
Width : 1 920 pixels
Height : 1 080 pixels
Display aspect ratio : 16:9
Frame rate : 59.940 fps
Original frame rate : 29.970 fps
Color space : YUV
Chroma subsampling : 4:2:0
Bit depth : 8 bits
Scan type : Interlaced
Scan order : Top Field First
Compression mode : Lossy
Bits/(Pixel*Frame) : 0.124
Stream size : 2.08 GiB (94%)
Language : English
Default : Yes
Forced : No

Audio #1
ID : 2
Format : AC-3
Format/Info : Audio Coding 3
Mode extension : CM (complete main)
Codec ID : A_AC3
Duration : 19mn 20s
Bit rate mode : Constant
Bit rate : 384 Kbps
Channel(s) : 6 channels
Channel positions : Front: L C R, Side: L R, LFE
Sampling rate : 48.0 KHz
Bit depth : 16 bits
Compression mode : Lossy
Stream size : 53.1 MiB (2%)
Title : AC3 6 ch
Language : English
Default : Yes
Forced : No

Audio #2
ID : 3
Format : MPEG Audio
Format version : Version 1
Format profile : Layer 2
Codec ID : A_MPEG/L2
Codec ID/Hint : MP2
Duration : 19mn 20s
Bit rate mode : Constant
Bit rate : 256 Kbps
Channel(s) : 2 channels
Sampling rate : 48.0 KHz
Compression mode : Lossy
Stream size : 35.4 MiB (2%)
Title : MP2 2 ch
Language : English
Default : No
Forced : No


4e4e3827ada5f8877a556b5c0b7e48916a43b4f8Mick Jagger / SNL [2012, Rock, HDTV 1080i] Mick Jagger / SNL [2012, Rock, HDTV 1080i] " />

Аплоадер: Админ, дата: 28-05-2012, 21:49, торрент скачан: 359 раз

Понравилась раздача? Посмотрите эти:
  • Inna / More Than Friends [2013, Pop, Master]
  • Italia / Hyper Time Lapse [2012, Art, Travel, Nature, Master]
  • Beyoncе / The Sound Of Change Live [2013, Pop, HDTV 1080i]
  • Beyoncе / The Sound Of Change Live [2013, Pop, HDTV 1080i]
  • T-ARA / Round and Round [2013, KPop, BDRip]
  • Rihanna / What Now [2013, R&B, HDTV]
  • Enrique Iglesias / Heart Attack [2013, Pop, HDTV]
  • Достучаться До Небес / ГУГЛ [2013, Pop, Master]
  • Чемпионат Мира 2014 / Отборочный турнир / Группа I / 10-й тур / Беларусь - ...
  • Чемпионат Англии 2012-2013 / 36-й тур / Манчестер Юнайтед - Челси / Спорт 1 ...
  • Чемпионат Испании 2012-13 / 34-й тур / Реал Мадрид - Вальядолид / НТВ+ [04. ...
  • Muse / Madness [2012, Pop, Rock , HDTV Feed 1080i]
  • Чемпионат Англии 2012-13 / 27-й тур / Обзор матчей субботы / Match Of The ...
  • Укуренные / Cheech and Chongs Up in Smoke (Лу Адлер, Томми Чонг, комедия, м ...
  • Чемпионат Испании 2011-12 / 35-й тур / Барселона - Реал / Футбол HD [Футбол ...
  • Katy Perry / Live At Rock In Rio [2011, Pop, HDTV] [1080i]
  • Rihanna / Diamonds (Victorias Secret) [2012, RnB, HDTV 1080i]
  • Голос // Выпуск 13 / Суперфинал (ТВ-шоу, 29.12.2012) [HDTV |1080i|, Не треб ...
  • Coldplay / Christmas Lights [2010, Indie Rock,Britpop, HDRip]
  • Madonna / Girl Gone Wild [2012, Pop, HDTV]
  • LeBron James 2012 Finals MVP [Баскетбол, 24.06.2012, HD, 720p, H.264, EN, H ...
  • Top 10 Plays of the 2012 NBA Finals [Баскетбол, 25.06.2012, HD, 720p, H.264 ...
  • Top 10 Dunks of the 2012 NBA Finals [Баскетбол, 25.06.2012, HD, 720p, H.264 ...
  • Чемпионат Европы 2012 / TOP 10 Goals & Best Moments [Футбол, 04.07.2012, HD ...
  • Namie Amuro / Love Story [2011, JPop, HDTVRip]
  • Информация
    Посетители, находящиеся в группе Гости, не могут оставлять комментарии к данной публикации.