вход на сайт

Имя пользователя :
Пароль :

Восстановление пароля Регистрация
ACDC -Live at Donington [1991, Hard-Rock ,BDRip]
Рейтинг:
(голосов: 1)



[img]{THEME}/images/logopost.png[/img]



Исполнитель: AC/DC
Оригинальное название: ACDC -Live at Donington
Год выпуска: 1991
Жанр: Hard-Rock

Описание:Грандиозное выступление AC/DC в августе 1991 года на территории замка Donnington, что озаглавило начало третьего фестиваля "Монстров Рока". Двухчасовое зрелище, переполненное суперхитами, световыми и визуальными эффектами, снятое на 26 камер и выпущенное в свое время на видео...

Треклист:
01. Thunderstruck
02. Shoot to Thrill
03. Back in Black
04. Hell Aint a Bad Place to Be
05. Heatseeker
06. Fire Your Guns
07. Jailbreak
08. The Jack
09. Dirty Deeds Done Dirt Cheap
10. Moneytalks
11. Hells Bells
12. High Voltage
13. Whole Lotta Rosie
14. You Shook Me All Night Long
15. T.N.T.
16. Let There Be Rock
17. Highway to Hell
18. For Those About to Rock (We Salute You)
"Media info" ▼

General

Format : Matroska
File size : 7.95 GiB
Duration : 1h 58mn
Overall bit rate : 9 633 Kbps
Encoded date : UTC 2007-11-03 23:19:40
Writing application : mkvmerge v2.1.0 (Another Place To Fall) built on Aug 19 2007 13:45:34
Writing library : libebml v0.7.7 + libmatroska v0.8.1
Video #1
ID : 1
Format : AVC
Format/Info : Advanced Video Codec
Format profile : [email protected]
Format settings, CABAC : Yes
Format settings, ReFrames : 6 frames
Muxing mode : Container [email protected]
Codec ID : V_MPEG4/ISO/AVC
Duration : 1h 57mn
Bit rate : 7 932 Kbps
Nominal bit rate : 8 121 Kbps
Width : 1 280 pixels
Height : 720 pixels
Display aspect ratio : 16:9
Frame rate : 23.976 fps
Resolution : 24 bits
Colorimetry : 4:2:0
Scan type : Progressive
Bits/(Pixel*Frame) : 0.359
Stream size : 6.54 GiB (82%)
Writing library : x264 core 56 svn-680

Language : English
Audio #2
ID : 2
Format : DTS
Format/Info : Digital Theater Systems
Codec ID : A_DTS
Duration : 1h 58mn
Bit rate mode : Constant
Bit rate : 1 510 Kbps
Channel(s) : 6 channels
Channel positions : Front: L C R, Surround: L R, LFE
Sampling rate : 48.0 KHz
Resolution : 24 bits
Stream size : 1.25 GiB (16%)
Language : English
Качество: BDRip
Продолжительность: 01:58:05

Формат:MKV
Видео: H264, 1280х720,7 932 Kbps , 23.976 fps
Аудио: DTS, 48.0 KHz, 6 channels, 1 510 Kbps


a635079682f6206b5e6cef02f6ee4dae41eb263eACDC -Live at Donington [1991, Hard-Rock ,BDRip] ACDC -Live at Donington [1991, Hard-Rock ,BDRip] " />

Аплоадер: Админ, дата: 2-09-2011, 20:29, торрент скачан: 359 раз

Понравилась раздача? Посмотрите эти:
Информация
Посетители, находящиеся в группе Гости, не могут оставлять комментарии к данной публикации.