вход на сайт

Имя пользователя :
Пароль :

Восстановление пароля Регистрация
Kiss - Live At Rock Am Ring [2010 г., Hard Rock, HDTV 1080p]
Рейтинг:
(голосов: 1)



[img]{THEME}/images/logopost.png[/img]



Исполнитель: Kiss
Оригинальное название: Kiss - Live At Rock Am Ring
Год выпуска: 2010
Жанр: Hard Rock

Описание: Выступление группы KISS на фестивале Rock Am Ring (Nürburg, Germany, June 3, 2010)

"Состав группы" ▼
Gene Simmons – bass, vocal
Paul Stanley – guitar, vocal
Tommy Thayer – lead guitar, vocals
Eric Singer – drums, vocals

"Треклист" ▼
01. Modern Day Delilah
02. Cold Gin
03. Let Me Go Rock N Roll
04. Firehouse
05. Say Yeh
06. Deuce
07. Crazy, Crazy Nights
08. Calling Dr. Love
09. Shocke Me
10. I am An Animale
11. I Love It Loud
12. Love Gun
13. Black Diamond
14. Detroit Rock City
15. Beth (acoustic with Eric Singer on vocals)
16. Lick It Up
17. Shout It Out Loud
18. I Was Made For Love In You
19. God Gave Rock N Roll To You (Argent cover)
20. Rock And Roll All Night


"Media Info" ▼Text
General
Format : Matroska
File size : 8.40 GiB
Duration : 1h 54mn
Overall bit rate : 10.5 Mbps
Encoded date : UTC 2011-04-17 12:05:16
Writing library : Haali DirectShow Matroska Muxer 1.10.348.15
Video #1
ID : 1
Format : AVC
Format/Info : Advanced Video Codec
Format profile : [email protected]
Format settings, CABAC : Yes
Format settings, ReFrames : 4 frames
Muxing mode : Container [email protected]
Codec ID : V_MPEG4/ISO/AVC
Duration : 1h 54mn
Bit rate : 9 950 Kbps
Width : 1 920 pixels
Height : 1 080 pixels
Display aspect ratio : 16:9
Frame rate : 25.000 fps
Resolution : 24 bits
Colorimetry : 4:2:0
Scan type : Interlaced
Scan order : Top Field First
Bits/(Pixel*Frame) : 0.192
Stream size : 7.93 GiB (94%)
Title : PID 4113 Video
colour_primaries : BT.709-5, BT.1361, IEC 61966-2-4, SMPTE RP177
transfer_characteristics : BT.709-5, BT.1361
matrix_coefficients : BT.709-5, BT.1361, IEC 61966-2-4 709, SMPTE RP177
Audio #2
ID : 2
Format : AC-3
Format/Info : Audio Coding 3
Codec ID : A_AC3
Duration : 1h 54mn
Bit rate mode : Constant
Bit rate : 384 Kbps
Channel(s) : 6 channels
Channel positions : Front: L C R, Surround: L R, LFE
Sampling rate : 48.0 KHz
Video delay : 24ms
Stream size : 313 MiB (4%)
Title : AC3
Language : English

Качество: HDTV
Продолжительность: 1ч. 54м.5с.

Формат: Mkv
Видео: MPEG4 Video (H264), 1920x1080i, 25 fps, 9950 Кбит/сек
Аудио: AC3, 48000Hz, 6 channels, 384 Кбит/сек


71cd89b33ddb4a5185f3ee4b0debcbafa5b6667aKiss - Live At Rock Am Ring [2010 г., Hard Rock, HDTV 1080p] Kiss - Live At Rock Am Ring [2010 г., Hard Rock, HDTV 1080p] " />

Аплоадер: Админ, дата: 30-08-2011, 14:26, торрент скачан: 359 раз

Понравилась раздача? Посмотрите эти:
Информация
Посетители, находящиеся в группе Гости, не могут оставлять комментарии к данной публикации.