вход на сайт

Имя пользователя :
Пароль :

Восстановление пароля Регистрация
The Black Eyed Peas / The E.N.D. World Tour [2010, RnB, HDRip]
Рейтинг:
(голосов: 1)



[img]{THEME}/images/logopost.png[/img]



The Black Eyed Peas: The E.N.D. World Tour

Исполнитель: The Black Eyed Peas
Оригинальное название: The E.N.D. World Tour
Год выпуска: 2010
Жанр: Live Show, Hip-Hop, RnB

Описание: The Black Eyed Peas - американская хип-хоп команда образована в 1995. В её составе will.i.am, Apl.De.Ap, Taboo и Fergie. Как известно, концертные туры коллектива The Black Eyed Peas всегда удивляли публику своим размахом и необычным подходом к выступлениям. 29 и 30 марта 2010 года в "Staples Center" в Лос-Анджелесе состоялся грандиозный концерт в рамках The E.N.D. World Tour.

Качество: HDRip
Продолжительность: 01:59:59

Формат: AVI
Видео: 720x400 (1.80:1), 29.970 fps, XviD build 50, 1874 kbps
Аудио: 48 kHz, AC3 Dolby Digital, 3/2 (L,C,R,l,r) + LFE ch, 384.00 kbps

B.E.P. | Wiki | MySpace | Last.Fm | Facebook | Discogs | Youtube

Треклист: ▼
Intro
"Lets Get It Started"
"Rock That Body"
"Meet Me Halfway"
"Alive" (snippet)
"Dont Phunk With My Heart"
will.i.am Freestyle Rap segment (BBMe)
"Imma Be"
"My Humps"
"Missing You"

Apl.de.ap Solo
"Bebot"
"Mare"

Taboo Solo
"Rocking to the Beat"

Fergie Solo
"Fergalicious"
"Glamorous"
"Big Girls Dont Cry"

Will.i.am Solo
DJ Set
"In the Ayer"
"OMG"
"Put Your Hands Up 4 Detroit"
"American Boy"
"Dont Stop til You Get Enough"
"Dont Stop the Music"
"Wanna Be Startin Somethin"
"White Lines (Dont Dont Do It)"
"Thriller"
"Jump Around"
"Otherside"
"Smells Like Teen Spirit"
"Dont Stop Believin"
"Right Round"

I Am in the House (Video interlude)
"Now Generation" (North America)
"Pump It"
"Where is the Love?"

Encore
Medley
"Party All the Time"
"Showdown"
"Boom Boom Pow"
"I Gotta Feeling"

MediaInfo ▼General
Complete name
Format : AVI
Format/Info : Audio Video Interleave
File size : 1.90 GiB
Duration : 1h 59mn
Overall bit rate : 2 270 Kbps
Writing application : VirtualDubMod 1.5.10.2 (build 2540/release)
Writing library : VirtualDubMod build 2540/release
Video
ID : 0
Format : MPEG-4 Visual
Format profile : Advanced [email protected]
Format settings, BVOP : Yes
Format settings, QPel : No
Format settings, GMC : No warppoints
Format settings, Matrix : Default (MPEG)
Codec ID : XVID
Codec ID/Hint : XviD
Duration : 1h 59mn
Bit rate : 1 874 Kbps
Width : 720 pixels
Height : 400 pixels
Display aspect ratio : 16:9
Frame rate : 29.970 fps
Color space : YUV
Chroma subsampling : 4:2:0
Bit depth : 8 bits
Scan type : Progressive
Bits/(Pixel*Frame) : 0.217
Stream size : 1.57 GiB (83%)
Writing library : XviD 1.2.1 (UTC 2008-12-04)
Audio
ID : 1
Format : AC-3
Format/Info : Audio Coding 3
Mode extension : CM (complete main)
Codec ID : 2000
Duration : 1h 59mn
Bit rate mode : Constant
Bit rate : 384 Kbps
Channel(s) : 6 channels
Channel positions : Front: L C R, Side: L R, LFE
Sampling rate : 48.0 KHz
Bit depth : 16 bits
Stream size : 330 MiB (17%)
Alignment : Aligned on interleaves
Interleave, duration : 33 ms (1.00 video frame)
Interleave, preload duration : 512 ms

Скриншоты ▼




4e972f476da5d572e42149e9903e119bcc74a863The Black Eyed Peas / The E.N.D. World Tour [2010, RnB, HDRip] The Black Eyed Peas / The E.N.D. World Tour [2010, RnB, HDRip] " />

Аплоадер: Админ, дата: 29-07-2011, 13:48, торрент скачан: 359 раз

Понравилась раздача? Посмотрите эти:
  • Michael Jackson / Live History World Tour in Munich [1997, Pop, HDTV 720р]
  • Black Eyed Peas / Lets Get It Started [2004, R&B, HDTV 1080i]
  • [3D] The Black Eyed Peas / Imma Be (Поп-музыка, 2010) [BDRip-AVC, Перевод н ...
  • (2010, сборник) VA / The Black Eyed Peas Rock Cover (various) [MP3, 128-320 ...
  • Black Eyed Peas / Meet Me Halfway (New Years Rockin Eve) (2010)
  • Black Eyed Peas / Imma Be Rockin That Body (2010)
  • Black Eyed Peas / Just Cant Get Enough [2011, R&B, HDRip]
  • Black Eyed Peas / Just Cant Get Enough [2011, R&B, DVDRip]
  • The Black Eyed Peas / Dont Stop The Party [2011, R&B, HDRip]
  • Beyonce / I Am... World Tour [2010, RnB, HDRip]
  • The Black Eyed Peas / The E.N.D. World Tour [2010 г., Hip-Hop, RnB, HDTVRip ...
  • (Дискография, 1998-2011) The Black Eyed Peas (Electro, Dance, R&B, Alternat ...
  • (2006) Sergio Mendes & The Black Eyed Peas / Timeless (R&B/Latin ) [mp3 32 ...
  • (Официальная Дискография) The Black Eyed Peas + Fergie + Will.I.Am + HQ Cov ...
  • Lady GaGa,Shakira,Pitbull,Madonna,David Guetta feat.Akon,Black Eyed Peas / ...
  • Lady Gaga,Rihanna,Pitbull,Ke$ha,Black Eyed Peas, Katy Perry... / United St ...
  • Lady Gaga, Shakira,Taylor Swift, Akon,Pitbull,Ke$ha,Black Eyed Peas... / U ...
  • The Black Eyed Peas / I Gotta Feeling [2010, Hip-Hop, BDRip]
  • Black Eyed Peas / Meet Me Halfway [2009,Pop ,HDRip]
  • Black Eyed Peas / The Time (Dirty Bit) [2010, Pop, HDRip]
  • (2010) Black Eyed Peas | The Beginning (iTunes Super Deluxe Version) (Rap| ...
  • Black Eyed Peas / Pump It [2006, R&B, HDTVRip]
  • Black Eyed Peas / Whenever [2011, Pop, R&B, WEBRip]
  • The Black Eyed Peas / Whenever [2011, Pop, WEBRip]
  • Sergio Mendes / Mas Que Nada (feat. The Black Eyed Peas) [2006, Рор, Dance, ...
  • Информация
    Посетители, находящиеся в группе Гости, не могут оставлять комментарии к данной публикации.