вход на сайт

Имя пользователя :
Пароль :

Восстановление пароля Регистрация
Linkin Park / Live in London ( iTunes Festival ) [4.07.2011, Alternative, WebStream HDRip]
Рейтинг:
(голосов: 1)



[img]{THEME}/images/logopost.png[/img]



Исполнитель: Linkin Park
Оригинальное название: Live in London 4.07.2011 (iTunes Festival)
Год выпуска: 2011
Жанр: Alternative

Описание: THIS IS AN UNCENSORED VERSION


▼ 01. The Requiem
02. Papercut
03. Lying From You
04. Given Up
05. What Ive Done
06. Empty Spaces
07. When They Come For Me
08. No More Sorrow
09. Jornada Del Muerto
10. Waiting For The End
11. Burning In The Skies
12. Numb
13. The Radiance w/ Keyboard + Catalyst Vox
14. Breaking The Habit
15. Fallout
16. The Catalyst
17. Crawling
18. Faint
19. One Step Closer
----------------------------------------------------
20. Rolling In The Deep (Adele Cover; Piano Version)
21. Wisdom, Justice, And Love
22. Iridescent
23. New Divide
24. In The End
25. Bleed It Out


Качество: WebStream HDRip 1080
Продолжительность: 01:33:50

Контейнер: M2TS
Видео кодек: H.264
Аудио кодек: AC3
Видео: AVC (H.264), 1920x1080, 14,7 Мбит/сек, 29,970 кадр/сек
Аудио: AC3, 448 Кбит/сек, 48,0 КГц, 6 каналов
"Media info" ▼General Information
Complete name E:LPIT.m2ts
Format: BDAV
Format/Info: Blu-ray Video
File size: 10.5 GiB
Duration: 1h 34mn
Overall bit rate: 15.8 Mbps
Maximum Overall bit rate: 18.0 Mbps
Video
Format: AVC
Format/Info: Advanced Video Codec
Format profile: [email protected]
Format settings, CABAC: Yes
Format settings, ReFrames: 2 frames
Format settings, GOP: M=1, N=30
Codec ID: 27
Duration: 1h 33mn
Bit rate mode: Variable
Bit rate: 14.7 Mbps
Maximum bit rate: 16.0 Mbps
Width: 1 920 pixels
Height: 1 080 pixels
Display aspect ratio: 16:9
Frame rate: 29.970 fps
Color space: YUV
Chroma subsampling: 4:2:0
Bit depth: 8 bits
Scan type: Interlaced
Scan order: Top Field First
Bits/(Pixel*Frame): 0.237
Stream size: 9.66 GiB (92%)
Audio
Format: AC-3
Format/Info: Audio Coding 3
Mode extension: CM (complete main)
Codec ID: 129
Duration: 1h 34mn
Bit rate mode: Constant
Bit rate: 448 Kbps
Channel(s): 6 channels
Channel positions: Front: L C R, Side: L R, LFE
Sampling rate : 48.0 KHz
Bit depth: 16 bits
Compression mode: Lossy
Delay relative to video: -33ms
Stream size: 303 MiB (3%)


61ffe2ed46415b8c92a51918962241f4d443c05dLinkin Park / Live in London ( iTunes Festival ) [4.07.2011, Alternative, WebStream HDRip] Linkin Park / Live in London ( iTunes Festival ) [4.07.2011, Alternative, WebStream HDRip] " />

Аплоадер: Админ, дата: 9-07-2011, 11:32, торрент скачан: 359 раз

Понравилась раздача? Посмотрите эти:
  • Lady Gaga / Live at iTunes Festival [2013, Pop, HDTV]
  • Linkin Park & Jay-Z / Numb Encore [2004, Alternative Rock, Hip-Hop, BD Remu ...
  • (2013) Lady GaGa / iTunes Festival: London 2013 (Pop) [MP3, 256 kbps/CBR]
  • (2010) Linkin Park / Live In Berlin - Germany (LP Archives: Official Tour B ...
  • (2011) Linkin Park / Rolling In The Deep (Live From iTunes Festival London ...
  • (2012) Linkin Park / Live in Bristow (Alt.Rock/Nu-Metal) [MP3, 320/CBR]
  • (2012) Linkin Park /Live in Alpharetta, GA (Alternative Rock) [mp3, 320/SB ...
  • Linkin park / Live From Madison Square Garden [2011, Alt. Rock , HDTVRip ]
  • Linkin park / London, iTunes Festival (04.07.2011) [2011, Alternative , HDR ...
  • Linkin Park / Live in London ( iTunes Festival ) [4.07.2011, Alternative, D ...
  • Linkin Park / Live At Red Square (MTV World Stage) [2011, Alternative Rock, ...
  • Linkin Park / Live From iTunes Festival London 2011 [2011, Alternative Rock ...
  • Linkin Park / Live Rock In Rio Festival, Lisboa, Portugal [26.05.2012, Alte ...
  • Linkin Park / Live at iHeartRadio Music Festival 2012 [2012, Alternative, R ...
  • Linkin Park / Iridescent [2011, Alternative Rock, BD Remux]
  • Jessie J / Live at iTunes Festival [2012, Pop, RnB, HDTVRip]
  • (2010) Linkin Park / The Catalyst [iTunes EP] (Alternative Rock) [MP3, 320/ ...
  • Linkin park / Live at Red Square (Moscow) [2011, Alternative Rock , HDTVRip ...
  • Linkin Park / Rolling In The Deep (Live From iTunes Festival London) [2011, ...
  • Linkin Park / Iridescent (Moscow Visuals) [2011, Alternative Rock, HDRip]
  • Machete / Нежность [2011, R&B, HDRip]
  • Lana Del Rey / Born To Die [2011, Indie Pop, HDRip]
  • Kasabian / Live at iTunes Festival [2011, Alternative Rock / Indie Rock, HD ...
  • Linkin Park / Burn It Down [2012, Alternative, Master]
  • Lana Del Rey / Live at iTunes Festival [2012, Indie Pop/Alternative/Dream P ...
  • Информация
    Посетители, находящиеся в группе Гости, не могут оставлять комментарии к данной публикации.