вход на сайт

Имя пользователя :
Пароль :

Восстановление пароля Регистрация
Григорий Лепс / Самый лучший день (Live) [2013, Авторская песня, HDTVRip 720p]
Рейтинг:
(голосов: 1)



[img]{THEME}/images/logopost.png[/img]



Исполнитель: Григорий Лепс
Оригинальное название: Самый лучший день (Live)
Год выпуска: 2013
Жанр: Авторская песня

Описание: Его любят за мощный голос и редкую харизму. Он – кумир миллионов. Обладатель уникального по диапазону и колориту вокала. Его песни знает вся страна. Каждая новая его работа становится событием.

Свои лучшие песни Григорий Лепс исполнит в присущей только ему манере, за которую его так любят поклонники. Его колоритный, проникающий в душу, голос не спутаешь ни с каким другим. Его концерты - это шоу с масштабными декорациями и великолепным светом и звуком.

Треклист:
▼01. Берега
02. Он был старше ее (new)
03. Где-то за тучами (new)
04. Ну и что
05. Танго разбитых сердец
06. Небо
07. Я слушал дождь
08. Я искал в этом городе женщину
09. Я тебя не люблю
10. Уходи красиво
11. Рюмка водки на столе
12. Обернитесь
13. Самый лучший день
14. Водопадом
15. Лондон (new)
16. Се-ля-ви (new)
17. Она


Качество: HDTVRip
Продолжительность: 01:24:55

Формат: MKV
Видео: AVC, 1280x720, 5511 Кбит/с, 25 fps, 0.239 bit/pixel
Аудио: AC3, 2 ch, 48.0 КГц, 384 Кбит/с

Mediainfo
▼Общее
Уникальный идентификатор : 245066193051944194502420947872057590462 (0xB85E082E3D89BBC8B7D0BEFB1A4B02BE)
Полное имя : C:ФильмыГригорий Лепс - Самый лучший день.2013.x264.HDTVRip.(720p).mkv
Формат : Matroska
Версия формата : Version 2
Размер файла : 3,50 Гбайт
Продолжительность : 1 ч. 24 м.
Общий поток : 5896 Кбит/сек
Название фильма : Григорий Лепс - Юбилейный концерт (Rip by kaspr)
Дата кодирования : UTC 2013-03-10 10:29:39
Программа кодирования : mkvmerge v5.7.0 (The Whirlwind) built on Aug 7 2012 14:11:40
Библиотека кодирования : libebml v1.2.3 + libmatroska v1.3.0

Видео
Идентификатор : 1
Формат : AVC
Формат/Информация : Advanced Video Codec
Профиль формата : [email protected]
Параметр CABAC формата : Да
Параметр ReFrames формата : 8 кадров
Идентификатор кодека : V_MPEG4/ISO/AVC
Продолжительность : 1 ч. 24 м.
Битрейт : 5511 Кбит/сек
Ширина : 1280 пикселей
Высота : 720 пикселей
Соотношение сторон : 16:9
Режим частоты кадров : Постоянный
Частота кадров : 25,000 кадров/сек
Цветовое пространство : YUV
Субдискретизация насыщенности : 4:2:0
Битовая глубина : 8 бит
Тип развёртки : Прогрессивная
Бит/(Пиксели*Кадры) : 0.239
Размер потока : 3,20 Гбайт (91%)
Заголовок : Григорий Лепс - Юбилейный концерт (Rip by kaspr)
Библиотека кодирования : x264 core 129 r2245 bc13772
Настройки программы : cabac=1 / ref=8 / deblock=1:-3:-3 / analyse=0x3:0x133 / me=umh / subme=11 / psy=1 / psy_rd=1.00:0.10 / mixed_ref=1 / me_range=32 / chroma_me=1 / trellis=2 / 8x8dct=1 / cqm=0 / deadzone=21,11 / fast_pskip=0 / chroma_qp_offset=-3 / threads=12 / lookahead_threads=2 / sliced_threads=0 / nr=0 / decimate=0 / interlaced=0 / bluray_compat=0 / constrained_intra=0 / bframes=6 / b_pyramid=2 / b_adapt=2 / b_bias=0 / direct=3 / weightb=1 / open_gop=0 / weightp=2 / keyint=250 / keyint_min=23 / scenecut=40 / intra_refresh=0 / rc_lookahead=40 / rc=2pass / mbtree=1 / bitrate=5511 / ratetol=1.0 / qcomp=0.60 / qpmin=0 / qpmax=69 / qpstep=4 / cplxblur=20.0 / qblur=0.5 / ip_ratio=1.40 / aq=1:1.00
Default : Да
Forced : Нет

Аудио
Идентификатор : 2
Формат : AC-3
Формат/Информация : Audio Coding 3
Расширение режима : CM (complete main)
Параметр Endianness формата : Big
Идентификатор кодека : A_AC3
Продолжительность : 1 ч. 24 м.
Вид битрейта : Постоянный
Битрейт : 384 Кбит/сек
Каналы : 2 канала
Расположение каналов : Front: L R
Частота : 48,0 КГц
Битовая глубина : 16 бит
Метод сжатия : С потерями
Размер потока : 233 Мбайт (7%)
Язык : Russian
Default : Да
Forced : Да

Меню
00:00:00.000 : en:Берега
00:04:47.000 : en:Он был старше ее
00:10:08.000 : en:Где-то за тучами
00:15:20.000 : en:Ну и что
00:20:44.000 : en:Танго разбитых сердец
00:24:29.000 : en:Небо
00:29:17.000 : en:Я слушал дождь
00:35:17.000 : en:Свои
00:40:52.000 : en:Я тебя люблю
00:44:36.000 : en:Уходи кра
3ba1616a946bb9f179c86dbcf1e8fe016c8b56ebГригорий Лепс / Самый лучший день (Live) [2013, Авторская песня, HDTVRip 720p] Григорий Лепс / Самый лучший день (Live) [2013, Авторская песня, HDTVRip 720p] " />

Аплоадер: Админ, дата: 16-05-2013, 19:37, торрент скачан: 359 раз

Понравилась раздача? Посмотрите эти:
  • Григорий Лепс / Полный Вперед! [2013, Pop, Rock, Blu-ray]
  • Интерны // Эпизод 181. Новогодний выпуск (Комедия, 2013) [WEB-DL 720p, Не т ...
  • (2012, Сборник) Григорий Лепс / 100 лучших композиций (Шансон) [MP3, 320/CB ...
  • Джобс: Империя соблазна / jOBS (Джошуа Майкл Штерн, драма, биография, 2013) ...
  • [NG] Комета века / Comet of the century (документальный, 2013) [HDTVRip-AVC ...
  • Околофутбола (Антон Борматов, драма, криминал, 2013) [BDRip 720p, Не требуе ...
  • 11.6 / 11.6 (Филипп Годо, Драма, триллер, криминал, 2013) [BDRip-AVC, Профе ...
  • Заклятие / The Conjuring (Джеймс Ван, ужасы, триллер, 2013) [BDRip 720р, Ду ...
  • Заклятие / The Conjuring (Джеймс Ван, ужасы, триллер, 2013) [BDRip 1080p, Д ...
  • Лавлэйс / Lovelace (Роб Эпштейн, Джеффри Фридман, драма, биография, 2013) [ ...
  • Григорий Лепс / Самый лучший день (Live) [2013, Авторская песня, HDTV 1080i ...
  • Рикошет / Ricochet (Ник Гомез, драма, детектив, 2011) [BDRip-AVC, Профессио ...
  • Григорий Лепс / Полный Вперед! [2013, Pop, Rock, DVDRip]
  • Даю год / I Give It a Year (Дэн Мазер, мелодрама, комедия, 2012) [BDRip-AVC ...
  • 21 и больше / 21 & Over (Джон Лукас, Скотт Мур, Комедия, 2013) [BDRip-AVC, ...
  • Суррогат / The Sessions (Бен Луин, Драма, 2012) [BDRip-AVC, Профессиональны ...
  • Чемпионат Англии 2012-2013 / 25-й тур / Обзор / Суббота / BBC Sport [2013 г ...
  • Чемпионат Англии 2012-2013 / 25-й тур / Обзор / Воскресенье / BBC Sport [20 ...
  • День учителя (Сергей Мокрицкий, драма, 2012) [DVDRip-AVC, Не требуется]
  • Сид, инструкция по выживанию / Surviving Sid (Гален Т. Чу / Galen T. Chu, К ...
  • Скрат: Потерянный орех / Scrat: Gone Nutty (Карлос Салдана, короткометражка ...
  • Лоракс: Серенада / The Lorax: Serenade (Кайл Балда, мультфильм, комедия, му ...
  • Чемпионат Англии 2012-2013 / 19-й тур / Обзор / Среда / BBC Sport [2012 г., ...
  • Кубок Англии 2012-2013 / 3-й раунд / Обзор / Суббота / ITV 1 HD [2013 г., ф ...
  • (2012, Сборник) Григорий Лепс / Лучшее (Шансон) [MP3, 320/CBR]
  • Информация
    Посетители, находящиеся в группе Гости, не могут оставлять комментарии к данной публикации.