вход на сайт

Имя пользователя :
Пароль :

Восстановление пароля Регистрация
Григорий Лепс / Самый лучший день (Live) [2013, Авторская песня, HDTV 1080i]
Рейтинг:
(голосов: 1)



[img]{THEME}/images/logopost.png[/img]



Исполнитель: Григорий Лепс
Оригинальное название: Самый лучший день (Live)
Год выпуска: 2013
Жанр: Авторская песня

Описание: Его любят за мощный голос и редкую харизму. Он - кумир миллионов. Обладатель уникального по диапазону и колориту вокала. Его песни знает вся страна. Каждая новая его работа становится событием.
Свои лучшие песни Григорий Лепс исполнит в присущей только ему манере, за которую его так любят поклонники. Его колоритный, проникающий в душу, голос не спутаешь ни с каким другим. Его концерты - это шоу с масштабными декорациями и великолепным светом и звуком.

Треклист:
▼01. Берега
02. Он был старше ее (new)
03. Где-то за тучами (new)
04. Ну и что
05. Танго разбитых сердец
06. Небо
07. Я слушал дождь
08. Я искал в этом городе женщину
09. Я тебя не люблю
10. Уходи красиво
11. Рюмка водки на столе
12. Обернитесь
13. Самый лучший день
14. Водопадом
15. Лондон (new)
16. Се-ля-ви (new)
17. Она

Качество: HDTV 1080i
Продолжительность: 01:24:55

Формат: TS
Видео: AVC, 1920x1080, 25.000 fps, 12.0 Мбит/сек
Аудио: 48.0 kHz, AC3, 2ch, 384 kbps

Mediainfo:
▼Общее
Идентификатор : 1 (0x1)
Полное имя : C:Григорий Лепс - Самый лучший день.ts
Формат : MPEG-TS
Размер файла : 7,70 Гбайт
Продолжительность : 1 ч. 24 м.
Режим общего битрейта : Переменный
Общий поток : 13,0 Мбит/сек

Видео
Идентификатор : 305 (0x131)
Идентификатор меню : 1 (0x1)
Формат : AVC
Формат/Информация : Advanced Video Codec
Профиль формата : [email protected]
Параметр CABAC формата : Да
Параметр ReFrames формата : 3 кадра
Идентификатор кодека : 27
Продолжительность : 1 ч. 24 м.
Битрейт : 12,0 Мбит/сек
Ширина : 1920 пикселей
Высота : 1080 пикселей
Соотношение сторон : 16:9
Частота кадров : 25,000 кадров/сек
Стандарт вещания : Component
Цветовое пространство : YUV
Субдискретизация насыщенности : 4:2:0
Битовая глубина : 8 бит
Тип развёртки : Чересстрочная
Порядок развёртки : Верхнее поле первое
Бит/(Пиксели*Кадры) : 0.231
Размер потока : 7,09 Гбайт (92%)
Основные цвета : BT.709
Характеристики трансфера : BT.709
Коэффициенты матрицы : BT.709

Аудио
Идентификатор : 415 (0x19F)
Идентификатор меню : 1 (0x1)
Формат : AC-3
Формат/Информация : Audio Coding 3
Расширение режима : CM (complete main)
Параметр Endianness формата : Big
Идентификатор кодека : 6
Продолжительность : 1 ч. 24 м.
Вид битрейта : Постоянный
Битрейт : 384 Кбит/сек
Каналы : 2 канала
Расположение каналов : Front: L R
Частота : 48,0 КГц
Битовая глубина : 16 бит
Метод сжатия : С потерями
Размер потока : 233 Мбайт (3%)
Язык : Russian
Биография:
▼В начале 1990-х годов из угара сочинских кабаков 30-летний Григорий Лепс попадает в угар кабаков московских. Репертуар – соответствующий, жизнь – тоже. Результат – шесть месяцев между жизнью и смертью. Так родился настоящий Лепс…

Глубокие размышления пограничного бытия, сотрудничество с профессионалами привели к новым песням, альбомам и самым престижным площадкам – «России», «Олимпийского» и Кремля. Его мощный, богатый обертонами голос и запредельная, «на разрыв аорты» самоотдача на сцене заставляют вспомнить только одного предшественника – Владимира Высоцкого. Не случайно именно Лепс исполняет песни этого легендарного артиста и поэта.

Григорий Лепс не любит общаться с прессой, да и что ему рассказывать журналистам? Его жизнь – в песнях, в этой взрывной смеси шансона и рока, которая никого не оставляет равнодушным. Когда-то великая Эдит Пиаф сказала, что настоящий мастер может спеть даже телефонный справочник, да так, что весь зал будет рыдать. Эти слова относятся к Григорию Лепсу, как ни к одному другому современному артисту. За каждой спетой им строкой столько страсти, столько силы, столько жажды жизни, что любой, кто впервые услышит его песни и увидит его на сцене, автоматически пополняет армию поклонников этого удивительного артиста.

У него же самого отношение к своему творчеству запредельно требовательное. Как он сам говорит: «Я стараюсь петь так, чтобы не было стыдно слушать себя и через десять
97da2325a8d16c24ec11cc742062f65b129bf1e7Григорий Лепс / Самый лучший день (Live) [2013, Авторская песня, HDTV 1080i] Григорий Лепс / Самый лучший день (Live) [2013, Авторская песня, HDTV 1080i] " />

Аплоадер: Админ, дата: 3-09-2013, 18:14, торрент скачан: 359 раз

Понравилась раздача? Посмотрите эти:
  • Григорий Лепс / Полный Вперед! [2013, Pop, Rock, Blu-ray]
  • Григорий Лепс / Научись летать Live (Концерт в Crocus City Hall 7 марта 201 ...
  • VA / Красная звезда: 20 лучших песен года [2013, музыкальное шоу, HDTV 1080 ...
  • (2012, Сборник) Григорий Лепс / 100 лучших композиций (Шансон) [MP3, 320/CB ...
  • Григорий Лепс / Полный Вперед! [2013, Pop, Rock, DVDRip]
  • Григорий Лепс / Самый лучший день (Live) [2013, Авторская песня, HDTVRip 72 ...
  • Чемпионат Италии 2012-13 / 26-й тур / Интер - Милан / Футбол HD [Футбол, 24 ...
  • VA / Своя колея. Концерт к дню рождения Владимира Высоцкого [2013, Авторска ...
  • (Дискография, 1995-2011) Григорий Лепс (Шансон) [APE (image+.сue), FLAC (i ...
  • Баста / Райские яблоки (Live) [2012, Авторская песня/Шансон/Поэзия, WebRip] ...
  • Rihanna / Live Rock In Rio [2011, RnB, Pop, HDTV 1080i]
  • (2012) Григорий Лепс / Полный вперед (Шансон) [mp3, 320 kbps /CBR]
  • (2008) Григорий Лепс - Она не твоя (шансон) [MP3 320CBR]
  • Григорий Лепс / Купола (2005)
  • (2009) ГРИГОРИЙ ЛЕПС - Неизданное (Шансон) [MP3 128-320CBR]
  • (2009) Григорий Лепс - Я тебя не люблю (Шансон) [MP3 123-258 /VBR]
  • Григорий Лепс и Виктория Ильинская / Измены (2010)
  • Валерий Меладзе и Григорий Лепс / Обернитесь [2010, Pop,TVRip]
  • Григорий Лепс / Что может человек [2010, Шансон, DVD5]
  • Григорий Лепс / Концерт в Crocus City Hall [2011, Шансон, SATRip]
  • Тайный шоу-бизнес. Григорий Лепс: Клятва на крови (Документальный, 18/03/20 ...
  • Тимати и Григорий Лепс / Реквием по любви [2012, Pop, DVDRip]
  • (2012, Сборник) Григорий Лепс / Лучшее (Шансон) [MP3, 320/CBR]
  • Григорий Лепс / Водопадом [2012, Шансон, WEBRip]
  • Тимати ft. Григорий Лепс / Лондон [2012, Rap, WEBRip]
  • Информация
    Посетители, находящиеся в группе Гости, не могут оставлять комментарии к данной публикации.