вход на сайт

Имя пользователя :
Пароль :

Восстановление пароля Регистрация
VA (Korn, Flyleaf, Deftones, Dir En Grey, 10 Years, Stone Sour, Deadsy) / Family Values Tour [2006, Nu-Metal, DVDRip]
Рейтинг:
(голосов: 1)



[img]{THEME}/images/logopost.png[/img]



Исполнитель: VA
Оригинальное название: Family Values Tour
Год выпуска: 2006
Жанр: Nu-Metal


Треклист:
▼01. Deadsy - Carrying over
02. 10 Years - Waking Up
03. 10 Years - Autumn Effect
04. Dir En Grey - Kodoku Ni Shisu, Yueni Kodoku
05. Dir En Grey - IIID Empire
06. Flyleaf - Im So Sick
07. Flyleaf - Something I Can Never Have
08. Stone Sour - Reborn
09. Stone Sour - Throught Glass
10. Deftones - My Own Summer
11. Deftones - Nosebleed
12. Korn - Right Now
13. Korn - Coming Undone
14. Korn feat. Corey Taylor - Freak On A Leash
15. Korn - Hollow Life
16. Korn - Blind
______________________
Family Values Tour - Behind The Scenes
Документальные съёмки за кулисами (отдельным файлом)


Качество: DVDRip
Продолжительность: 01:18:32

Формат: MKV
Видео: H.264, 720x480, 16:9, ~2500 kbps, 29.970 fps.
Аудио #1: AC3, 384 kbps, 48 kHz, 6 CH.
Аудио #2: AC3, 192 kbps, 48 kHz, 2 CH.


"MediaInfo" ▼TextОбщее
Уникальный идентификатор : 241696563491870344189460603497618444184 (0xB5D5109DD70F0E8E9D06A8C36BAD8F98)
Полное имя : D:ВидеоFamily Values TourFamily Values Tour 2006Family Values Tour [2006, Nu Metal, DVDRip - AVC].mkv
Формат : Matroska
Версия формата : Version 2
Размер файла : 1,69 Гбайт
Продолжительность : 1 ч. 18 м.
Общий поток : 3082 Кбит/сек
Программа кодирования : XviD4PSP 6.0 / 53.6.0
Библиотека кодирования : XviD4PSP 6.0 / 53.6.0

Видео
Идентификатор : 1
Формат : AVC
Формат/Информация : Advanced Video Codec
Профиль формата : [email protected]
Параметр CABAC формата : Да
Параметр ReFrames формата : 10 кадров
Идентификатор кодека : V_MPEG4/ISO/AVC
Продолжительность : 1 ч. 18 м.
Битрейт : 2500 Кбит/сек
Ширина : 720 пикселей
Высота : 480 пикселей
Соотношение сторон : 16:9
Соотношение сторон в оригинале : 16:9
Режим частоты кадров : Переменный
Частота кадров : 29,970 кадров/сек
Стандарт вещания : NTSC
Цветовое пространство : YUV
Субдискретизация насыщенности : 4:2:0
Битовая глубина : 8 бит
Тип развёртки : Прогрессивная
Бит/(Пиксели*Кадры) : 0.241
Размер потока : 1,34 Гбайт (79%)
Библиотека кодирования : x264 core 116 r2019M 9cc407d
Настройки программы : cabac=1 / ref=10 / deblock=1:-2:-1 / analyse=0x3:0x133 / me=umh / subme=10 / psy=1 / psy_rd=1.00:0.20 / mixed_ref=1 / me_range=32 / chroma_me=1 / trellis=2 / 8x8dct=1 / cqm=0 / deadzone=21,11 / fast_pskip=1 / chroma_qp_offset=-3 / threads=6 / sliced_threads=0 / nr=0 / decimate=1 / interlaced=0 / bluray_compat=0 / constrained_intra=0 / bframes=10 / b_pyramid=2 / b_adapt=2 / b_bias=0 / direct=3 / weightb=1 / open_gop=0 / weightp=2 / keyint=290 / keyint_min=29 / scenecut=40 / intra_refresh=0 / rc_lookahead=40 / rc=2pass / mbtree=1 / bitrate=2500 / ratetol=1.0 / qcomp=0.60 / qpmin=0 / qpmax=69 / qpstep=4 / cplxblur=20.0 / qblur=0.5 / ip_ratio=1.40 / aq=1:1.00
Default : Да
Forced : Нет

Аудио #1
Идентификатор : 2
Формат : AC-3
Формат/Информация : Audio Coding 3
Расширение режима : CM (complete main)
Параметр Endianness формата : Big
Идентификатор кодека : A_AC3
Продолжительность : 1 ч. 18 м.
Вид битрейта : Постоянный
Битрейт : 384 Кбит/сек
Каналы : 6 каналов
Расположение каналов : Front: L C R, Side: L R, LFE
Частота : 48,0 КГц
Битовая глубина : 16 бит
Метод сжатия : С потерями
Размер потока : 216 Мбайт (12%)
Язык : English
Default : Да
Forced : Нет

Аудио #2
Идентификатор : 3
Формат : AC-3
Формат/Информация : Audio Coding 3
Расширение режима : CM (complete main)
Параметр Endianness формата : Big
Идентификатор кодека : A_AC3
Продолжительность : 1 ч. 18 м.
Вид битрейта : Постоянный
Битрейт : 192 Кбит/сек
Каналы : 2 канала
Расположение каналов : Front: L R
Частота : 48,0 КГц
Битовая глубина : 16 бит
Метод сжатия : С потерями
Размер потока : 108 Мбайт (6%)
Язык : English
Default : Да
Forced : Нет

Меню
00:03:22.000 : Deadsy - Carrying over
00:10:12.400 : 10 Years - Waking Up
00:13:34.800 : 10 Years - Autumn Effect
00:18:10.800 : Dir En Grey - Kodoku Ni Shisu, Yueni Kodoku
00:22:05.800 : Dir En Grey - IIID Empire
00:2
4a9be446cb60372a12575765e4e4a9754d9c65f1VA (Korn, Flyleaf, Deftones, Dir En Grey, 10 Years, Stone Sour, Deadsy) / Family Values Tour [2006, Nu-Metal, DVDRip] VA (Korn, Flyleaf, Deftones, Dir En Grey, 10 Years, Stone Sour, Deadsy) / Family Values Tour [2006, Nu-Metal, DVDRip] " />

Аплоадер: Админ, дата: 13-07-2012, 20:36, торрент скачан: 359 раз

Понравилась раздача? Посмотрите эти:
  • (2013) Korn / Never Never: The Remixes (Alt. Metal / Nu Metal / Electronic) ...
  • (2013) Korn / The Paradigm Shift [Japanese Edition] (Nu-Metal) [MP3, 320 kb ...
  • Интимные места (Наталья Меркулова, Алексей Чупов, драма, мелодрама, 2013) [ ...
  • Война миров Z / World War Z [Theatrical Cut] (Марк Форстер, ужасы, фантасти ...
  • Незнакомец внутри / The Stranger Within (Adam Neutzsky-Wulff, триллер, 2013 ...
  • Даю год / I Give It a Year (Дэн Мазер, мелодрама, комедия, 2012) [BDRip-AVC ...
  • (2013) Stone Sour / House of Gold & Bones Part 2 (Japanese Edition) (Alt. M ...
  • Толстяк на ринге / Here Comes the Boom (Фрэнк Корачи, Боевик, комедия, 2012 ...
  • Суррогат / The Sessions (Бен Луин, Драма, 2012) [BDRip-AVC, Профессиональны ...
  • Чемпионат Англии 2012-2013 / 25-й тур / Обзор / Суббота / BBC Sport [2013 г ...
  • Иностранный легион / La cité (Ким Нгуйен / Kim Nguyen, драма, 2010) [DVDRip ...
  • Проект X: Дорвались / Project X (Нима Нуризаде, комедия, 2012) [BDRip - AVC ...
  • Помогите Стать Отцом / Not Suitable For Children (Питер Темплмен, Мелодрама ...
  • Котенок с улицы Лизюкова (Вячеслав Котеночкин, Мультфильм, 1988) [DVDRip-AV ...
  • Скрат: Потерянный орех / Scrat: Gone Nutty (Карлос Салдана, короткометражка ...
  • Схватка / The Grey (Джо Карнахан, боевик, триллер, драма, приключения, 2012 ...
  • Лоракс: Серенада / The Lorax: Serenade (Кайл Балда, мультфильм, комедия, му ...
  • (2012) Stone Sour / The Best Of Stone Sour (Alt.Metal) [MP3, 320/CBR]
  • VA (Korn, Rammstein, Limp Bizkit, Orgy, Ice Cube) / Family Values Tour [199 ...
  • (2012) Korn / The Path Of Totality Tour: Live At The Hollywood Palladium ( ...
  • Информация
    Посетители, находящиеся в группе Гости, не могут оставлять комментарии к данной публикации.