вход на сайт

Имя пользователя :
Пароль :

Восстановление пароля Регистрация
VA (Korn, Rammstein, Limp Bizkit, Orgy, Ice Cube) / Family Values Tour [1998, Nu-Metal, Rock, Rap, DVDRip]
Рейтинг:
(голосов: 1)



[img]{THEME}/images/logopost.png[/img]



Исполнитель: VA
Оригинальное название: Family Values Tour
Год выпуска: 1998
Жанр: Nu-Metal, Rock, Rap


Треклист:
▼01. Limp Bizkit - Cambodia
02. Limp Bizkit - Counterfeit
03. Limp Bizkit - Faith
04. Limp Bizkit - Jump Around
05. Ice Cube - Check Yo Self
06. Ice Cube - Fuck Dying
07. Ice Cube - Good Day
08. Ice Cube - Fuck Tha Police
09. Orgy - Blue Monday
10. Orgy - Stitches
11. Orgy feat. Jonathan Davis - Revival
12. Rammstein - Bück Dich
13. Rammstein - Du Hast
14. Korn - Blind
15. Korn feat. Limp Bizkit - All In The Family
16. Korn - Got The Life
17. Korn - A.D.I.D.A.S.
18. Korn feat. Ice Cube - Children Of The Korn / Wicked
19. Korn - Faget


Качество: DVDRip
Продолжительность: 01:25:50

Формат: MKV
Видео: H.264, 704x480, 4:3, ~2500 kbps, 29.970 fps.
Аудио: AC3, 448 kbps, 48 kHz, 5.1 CH.

"MediaInfo" ▼TextОбщее
Уникальный идентификатор : 199123796123094774815821830076100704048 (0x95CDD920F8A9BBAF90F0C86C2CD2F730)
Полное имя : D:ВидеоFamily Values TourFamily Values Tour [1998, Nu Metal, Rap, DVD Rip - AVC].mkv
Формат : Matroska
Версия формата : Version 2
Размер файла : 1,77 Гбайт
Продолжительность : 1 ч. 25 м.
Общий поток : 2950 Кбит/сек
Дата кодирования : UTC 2012-06-22 14:02:12
Программа кодирования : mkvmerge v5.6.0 (Kenya Kane) built on May 27 2012 16:44:04
Библиотека кодирования : libebml v1.2.3 + libmatroska v1.3.0

Видео
Идентификатор : 1
Формат : AVC
Формат/Информация : Advanced Video Codec
Профиль формата : [email protected]
Параметр CABAC формата : Да
Параметр ReFrames формата : 10 кадров
Идентификатор кодека : V_MPEG4/ISO/AVC
Продолжительность : 1 ч. 25 м.
Битрейт : 2500 Кбит/сек
Ширина : 704 пикселя
Высота : 480 пикселей
Соотношение сторон : 4:3
Режим частоты кадров : Переменный
Частота кадров : 29,970 кадров/сек
Стандарт вещания : NTSC
Цветовое пространство : YUV
Субдискретизация насыщенности : 4:2:0
Битовая глубина : 8 бит
Тип развёртки : Прогрессивная
Бит/(Пиксели*Кадры) : 0.247
Размер потока : 1,46 Гбайт (83%)
Заголовок : Family Values Tour [1998, Nu Metal, Rap, DVDRip - AVC]
Библиотека кодирования : x264 core 116 r2019M 9cc407d
Настройки программы : cabac=1 / ref=10 / deblock=1:-1:-3 / analyse=0x3:0x133 / me=umh / subme=10 / psy=1 / psy_rd=1.00:0.20 / mixed_ref=1 / me_range=24 / chroma_me=1 / trellis=2 / 8x8dct=1 / cqm=0 / deadzone=21,11 / fast_pskip=0 / chroma_qp_offset=-3 / threads=6 / sliced_threads=0 / nr=0 / decimate=1 / interlaced=0 / bluray_compat=0 / constrained_intra=0 / bframes=10 / b_pyramid=2 / b_adapt=2 / b_bias=0 / direct=3 / weightb=1 / open_gop=0 / weightp=2 / keyint=290 / keyint_min=29 / scenecut=40 / intra_refresh=0 / rc_lookahead=40 / rc=2pass / mbtree=1 / bitrate=2500 / ratetol=1.0 / qcomp=0.60 / qpmin=0 / qpmax=69 / qpstep=4 / cplxblur=20.0 / qblur=0.5 / ip_ratio=1.40 / aq=1:1.00
Язык : English
Default : Да
Forced : Нет

Аудио
Идентификатор : 2
Формат : AC-3
Формат/Информация : Audio Coding 3
Расширение режима : CM (complete main)
Параметр Endianness формата : Big
Идентификатор кодека : A_AC3
Продолжительность : 1 ч. 25 м.
Вид битрейта : Постоянный
Битрейт : 448 Кбит/сек
Каналы : 6 каналов
Расположение каналов : Front: L C R, Side: L R, LFE
Частота : 48,0 КГц
Битовая глубина : 16 бит
Метод сжатия : С потерями
Размер потока : 275 Мбайт (15%)
Заголовок : AC3 [5.1 CH]
Язык : English
Default : Нет
Forced : Нет

Меню
00:03:07.000 : en:Limp Bizkit - Cambodia
00:08:42.700 : en:Limp Bizkit - Counterfeit
00:13:43.000 : en:Limp Bizkit - Faith
00:16:11.000 : en:Limp Bizkit - Jump Around
00:22:19.400 : en:Ice Cube - Check Yo Self
00:24:50.300 : en:Ice Cube - Fuck Dying
00:27:39.000 : en:Ice Cube - Good Day
00:29:46.000 : en:Ice Cube - Fuck Tha Police
00:32:40.000 : en:Orgy - Blue Monday
00:37:01.800 : en:Orgy - Stitches
00:41:28.200 : en:Orgy feat. Jonathan Davis - Revival
00:46:47.000 : en:Rammstein - Bück Dich
00:51:28.000 : en:Rammstein - Du Hast
00:58:11.000 : en:Korn - Blind
01:02:42.000 : en:Korn feat. Limp Bizkit - A
5f76cb045fa15fa697473190a2d04ffd57c35d5fVA (Korn, Rammstein, Limp Bizkit, Orgy, Ice Cube) / Family Values Tour [1998, Nu-Metal, Rock, Rap, DVDRip] VA (Korn, Rammstein, Limp Bizkit, Orgy, Ice Cube) / Family Values Tour [1998, Nu-Metal, Rock, Rap, DVDRip] " />

Аплоадер: Админ, дата: 13-07-2012, 20:24, торрент скачан: 359 раз

Понравилась раздача? Посмотрите эти:
Информация
Посетители, находящиеся в группе Гости, не могут оставлять комментарии к данной публикации.